407 lines
4.5 KiB
Plaintext
407 lines
4.5 KiB
Plaintext
//TJADB Project
|
|
TITLE:Shiro Neko Caramel Mugen no Wata-ame
|
|
TITLEJA:白猫きゃらめる夢幻のわたあめ
|
|
SUBTITLE:--Mirai feat. Keiori Aihara
|
|
BPM:144
|
|
WAVE:Shiro Neko Caramel Mugen no Wata-ame.ogg
|
|
OFFSET:-2.740
|
|
DEMOSTART:56.062
|
|
|
|
COURSE:Oni
|
|
LEVEL:7
|
|
BALLOON:5,5,13
|
|
SCOREINIT:480
|
|
SCOREDIFF:118
|
|
|
|
|
|
#START
|
|
|
|
|
|
1000201000112000,
|
|
2010001010222010,
|
|
1000201000112000,
|
|
2010001020221020,
|
|
1000201000112000,
|
|
2010001020222010,
|
|
1000201000112000,
|
|
21014040,
|
|
1001101011101020,
|
|
1000101117000800,
|
|
2220202202022020,
|
|
1202102012021020,
|
|
1122201011102020,
|
|
1000101117000800,
|
|
1110101010111010,
|
|
1202101012021020,
|
|
1110201010121200,
|
|
2220202202022020,
|
|
2020222022022020,
|
|
1000200012021020,
|
|
1110201011221200,
|
|
1110101010111010,
|
|
1010111011011010,
|
|
2000100021021020,
|
|
1000200010112000,
|
|
1000200011201200,
|
|
1011200010700000,
|
|
00080202,
|
|
1011201010112011,
|
|
1011201010112020,
|
|
1011202010112210,
|
|
1011202030003000,
|
|
|
|
#GOGOSTART
|
|
1000200010112010,
|
|
1000200011201200,
|
|
1000200010112010,
|
|
1000200010112000,
|
|
1000200010112010,
|
|
1000200011201200,
|
|
1000200010112010,
|
|
1233,
|
|
1000200010112010,
|
|
1000200011201200,
|
|
1000200010112010,
|
|
1000200011201020,
|
|
1010200010112010,
|
|
1011202011201200,
|
|
10201126,
|
|
0000000000000000000000000000000000000000000800000000000000000000,
|
|
|
|
#GOGOEND
|
|
1000200010112010,
|
|
2000100020221010,
|
|
1000200011202010,
|
|
1000200010112000,
|
|
1000200011122010,
|
|
1110202010111000,
|
|
1112221112202010,
|
|
2221112221011220,
|
|
|
|
#GOGOSTART
|
|
1010200010112010,
|
|
1011201010112000,
|
|
2000100020221020,
|
|
2022102020221000,
|
|
1000200010112010,
|
|
1011201010112000,
|
|
1010202010112010,
|
|
1233,
|
|
1010202010112010,
|
|
1011201010112000,
|
|
2020100010112010,
|
|
1011201010112000,
|
|
1010200010112010,
|
|
1011201010112000,
|
|
1011202000102060,
|
|
0000000000000000000000000000000000000000000800000000000000000000,
|
|
|
|
#GOGOEND
|
|
1001201010122200,
|
|
2020222022022020,
|
|
2220202202022020,
|
|
1000202012021020,
|
|
1120201011221200,
|
|
1010111011011010,
|
|
1110101010111010,
|
|
2000111012021020,
|
|
#SCROLL 2
|
|
222200300000000000000000,
|
|
|
|
|
|
#END
|
|
|
|
|
|
COURSE:Hard
|
|
LEVEL:6
|
|
BALLOON:4,4,11
|
|
|
|
#START
|
|
10210120,
|
|
21012020,
|
|
10210120,
|
|
21012012,
|
|
10210120,
|
|
21012020,
|
|
10210120,
|
|
21004040,
|
|
1001101010101000,
|
|
1000101170000800,
|
|
2020202002002000,
|
|
1002200010022000,
|
|
1001101010101020,
|
|
0000101170000800,
|
|
1110100010111000,
|
|
1002200010022000,
|
|
1001101010101000,
|
|
2020202002002000,
|
|
22222020,
|
|
1000200010022000,
|
|
1110100010202000,
|
|
1110100010111000,
|
|
1000111010001000,
|
|
2000100020022000,
|
|
10201120,
|
|
1000200010200200,
|
|
10201700,
|
|
00080202,
|
|
10201120,
|
|
1000200010200200,
|
|
10201120,
|
|
1233,
|
|
|
|
#GOGOSTART
|
|
1000100010111000,
|
|
1000200010200200,
|
|
1000100010111000,
|
|
1000200010111000,
|
|
1000200010111000,
|
|
1000200010200200,
|
|
1000100010111010,
|
|
1233,
|
|
1000100010111000,
|
|
1000200010200200,
|
|
1000100010111000,
|
|
10201202,
|
|
1010100010111000,
|
|
1000200010200200,
|
|
10101116,
|
|
0000000000080000,
|
|
|
|
#GOGOEND
|
|
10201120,
|
|
2000100020111000,
|
|
10201120,
|
|
1000200010111000,
|
|
10201120,
|
|
1000200010111000,
|
|
3004003004003000,
|
|
6000000000080000,
|
|
|
|
#GOGOSTART
|
|
1000100010111000,
|
|
10201120,
|
|
1000100010111000,
|
|
1000200010111000,
|
|
1000200010111000,
|
|
10201120,
|
|
1000100010111010,
|
|
1233,
|
|
1010200010111000,
|
|
10201120,
|
|
1010200010111000,
|
|
10201120,
|
|
1010200010111000,
|
|
10201120,
|
|
11200116,
|
|
0000000000080000,
|
|
|
|
#GOGOEND
|
|
1001101000102000,
|
|
2020222020002000,
|
|
2220202020002000,
|
|
0000202010011000,
|
|
1110202011101000,
|
|
1010111010001000,
|
|
1110100010111010,
|
|
2000111010011020,
|
|
0300,
|
|
,
|
|
,
|
|
#END
|
|
|
|
COURSE:Normal
|
|
LEVEL:5
|
|
BALLOON:4,4,2,6
|
|
|
|
#START
|
|
10010010,
|
|
01002020,
|
|
10010010,
|
|
01001000,
|
|
10010010,
|
|
01002020,
|
|
10010010,
|
|
0044,
|
|
10101110,
|
|
1000700000080000,
|
|
20222020,
|
|
1210,
|
|
10111010,
|
|
1000700000080000,
|
|
10111010,
|
|
1210,
|
|
10111000,
|
|
20222000,
|
|
20222020,
|
|
1210,
|
|
1000100070000800,
|
|
10101110,
|
|
10111010,
|
|
2300,
|
|
10201110,
|
|
1210,
|
|
1270,
|
|
0000000800000000,
|
|
1210,
|
|
1210,
|
|
10201110,
|
|
1033,
|
|
|
|
#GOGOSTART
|
|
10101111,
|
|
0210,
|
|
10101111,
|
|
0210,
|
|
10101111,
|
|
0120,
|
|
10101111,
|
|
0033,
|
|
10101111,
|
|
0210,
|
|
10101111,
|
|
0210,
|
|
11101020,
|
|
10111000,
|
|
10101006,
|
|
0000000008000000,
|
|
|
|
#GOGOEND
|
|
1210,
|
|
2120,
|
|
1210,
|
|
10111000,
|
|
1210,
|
|
1210,
|
|
30030000,
|
|
40040000,
|
|
|
|
#GOGOSTART
|
|
10101111,
|
|
0210,
|
|
10101111,
|
|
0210,
|
|
10201111,
|
|
0120,
|
|
11101000,
|
|
1230,
|
|
11102010,
|
|
10221000,
|
|
11102010,
|
|
11201000,
|
|
10101110,
|
|
1210,
|
|
10200006,
|
|
0000000008000000,
|
|
|
|
#GOGOEND
|
|
10111010,
|
|
22202000,
|
|
22202020,
|
|
0210,
|
|
11201000,
|
|
10111010,
|
|
11101110,
|
|
20111020,
|
|
0300,
|
|
,
|
|
,
|
|
#END
|
|
|
|
COURSE:Easy
|
|
LEVEL:4
|
|
BALLOON:3,3,2,4
|
|
|
|
#START
|
|
10010010,
|
|
01001000,
|
|
10010010,
|
|
01001000,
|
|
10010010,
|
|
01001000,
|
|
10010010,
|
|
03,
|
|
1110,
|
|
0000700000080000,
|
|
2202,
|
|
11,
|
|
1110,
|
|
0000700000080000,
|
|
1110,
|
|
12,
|
|
1110,
|
|
2220,
|
|
2220,
|
|
1200,
|
|
1000000070000800,
|
|
1011,
|
|
11,
|
|
0300,
|
|
11,
|
|
1110,
|
|
17,
|
|
0000000800000000,
|
|
11,
|
|
1110,
|
|
11,
|
|
3,
|
|
|
|
#GOGOSTART
|
|
1110,
|
|
1,
|
|
1110,
|
|
1,
|
|
1110,
|
|
1,
|
|
1110,
|
|
3,
|
|
1120,
|
|
1,
|
|
1120,
|
|
1,
|
|
1120,
|
|
1,
|
|
10102006,
|
|
0000000008000000,
|
|
|
|
#GOGOEND
|
|
12,
|
|
21,
|
|
12,
|
|
1110,
|
|
12,
|
|
1110,
|
|
3,
|
|
4,
|
|
|
|
#GOGOSTART
|
|
1120,
|
|
11,
|
|
1120,
|
|
11,
|
|
1120,
|
|
11,
|
|
1120,
|
|
13,
|
|
1120,
|
|
12,
|
|
1120,
|
|
12,
|
|
1120,
|
|
12,
|
|
10102006,
|
|
0000000008000000,
|
|
|
|
#GOGOEND
|
|
11,
|
|
2220,
|
|
2220,
|
|
0200,
|
|
12,
|
|
1110,
|
|
1110,
|
|
0100,
|
|
0300,
|
|
,
|
|
,
|
|
#END |