Files
2023-06-15 19:15:39 -05:00

659 lines
7.7 KiB
Plaintext
Raw Permalink Blame History

This file contains ambiguous Unicode characters
This file contains Unicode characters that might be confused with other characters. If you think that this is intentional, you can safely ignore this warning. Use the Escape button to reveal them.
//TJADB Project
TITLE:Shunyuu ~happy excursion~
TITLEJA:春遊 ~happy excursion~
SUBTITLE:--Chai Found Music Workshop
BPM:140
WAVE:Shunyuu ~happy excursion~.ogg
OFFSET:-2.020
DEMOSTART:17.439
COURSE:Edit
LEVEL:8
STYLE:Double
SCOREINIT:690
SCOREDIFF:198
#START P1
4,
11210021,
00210220,
11210021,
00210220,
12210021,
02100220,
12210210,
11111110,//9
#GOGOSTART
1022200000222030,
01121440,
1022200000222030,
01122340,
10011001,
01121440,
1110000011100000,
11221440,
1022201010222030,
01121440,
1022201010222030,
01122340,
10011003,
01121440,
11221100,
12121110,
3,//26
#GOGOEND
1202,
1202,
1202,
1202,
1202,
1202,
1202,
3000003011103000,
1212,
1212,
10201200,
1212,
1212,
1212,
10201200,
1212,
10101110,
10102220,
12121010,
1210,
10101110,
10102220,
11111010,
12222040,//50
#GOGOSTART
1022201010222030,
01121440,
1022201010222030,
01122340,
10011003,
01121440,
1110000011100000,
11221440,
1022202020222030,
01121440,
1022202020222030,
01122340,
10011003,
01121440,
11221001,
01212440,
10202021,
01202020,
11013301,
02020440,
1011101000001010,
02221114,
600000000000000000000000000000000000000000000008,//73
#GOGOEND
#END
#START P2
4,
10202120,
11202020,
10202120,
11202020,
10202120,
1222,
10202120,
11111110,//9
#GOGOSTART
10011003,
01121440,
10011003,
01122340,
1022200000222010,
01121440,
0000111000001110,
11221440,
10011003,
01121440,
10011003,
01122340,
1022201010222030,
01121440,
11001122,
12121110,
3,//26
#GOGOEND
10220200,
10220202,
10220200,
10220200,
10220200,
10220202,
10220200,
3011103000003000,
10020120,
10020120,
10021002,
10020120,
10020120,
10020120,
10021002,
10020120,
10102220,
10101110,
10101212,
1210,
10102220,
10101110,
10101111,
12222040,//50
#GOGOSTART
10011003,
01121440,
10011003,
01122340,
1022201010222030,
01121440,
0000111000001110,
11221440,
10011003,
01121440,
10011003,
01122340,
1022202020222030,
01121440,
11001221,
01212440,
10020221,
01020200,
10103301,
02202440,
1000001011101010,
01112223,
600000000000000000000000000000000000000000000008,//73
#GOGOEND
#END
STYLE:Single
SCOREINIT:320
SCOREDIFF:90
#START
4,
1020202220222020,
1020202220222010,
1022202022202010,
1022202022202020,
1020202220222020,
1020202220222010,
1022202022202020,
3030303030302222,//9
#GOGOSTART
1011204011212030,
0040302210212010,
3011204011212030,
0040302210212222,
1011204011212030,
0040302210212010,
2212221222122212,
2030403040222010,
4022104012212030,
0040302210212010,
4022104012212030,
0040302210212222,
2022104012212030,
0040302210212010,
1011202120121010,
40403443,
4,//26
#GOGOEND
4000200020222020,
2022202000222020,
2022202020200020,
0000000000222020,
1022201010200020,
1022201010222020,
11211202,
4030304030304022,
1010201110102022,
1010201102102020,
1010201110102010,
1010201102112020,
1010201110102022,
1010201102102020,
1010201110102000,
43333444,
1021201202102012,
1021201201201211,
1021201202102022,
1011201211202222,
1021201202102012,
1021201201201211,
1021201202102011,
2211221122212222,//50
#GOGOSTART
1011204011212030,
0040302210212010,
3011204011212030,
0040302210212222,
1011204011212030,
0040302210212010,
2212221222122212,
2030403040222010,
4022104012212030,
0040302210212010,
4022104012212030,
0040302210212222,
2022104012212030,
0040302210212010,
1011202120121030,
0040403040222020,
30303034,
0020202210102000,
1011101040400030,
0010201012112222,
1212204011212030,
0022202020222020,
600000000000000000000000000000000000000000000008,//73
#GOGOEND
#END
COURSE:Oni
LEVEL:7
SCOREINIT:410
SCOREDIFF:100
#START
,
1202,
1202,
12202022,
12202022,
1202,
1202,
12202022,
3030303030302222,//9
#GOGOSTART
1011102010102030,
0011102010222010,
1011102010102030,
0011102010112222,
1011102010102030,
0011102010222010,
2211221122112211,
1010201020222010,
1022102010202030,
0011102010222010,
1022102010202030,
0011102010112222,
1022102010202030,
0011102010222010,
11212112,
30303333,
4,//26
#GOGOEND
1202,
1202,
10201120,
1000200000222020,
10211202,
1000201010222020,
11211202,
4030304030304011,
1000201010102022,
11210122,
10211202,
10210122,
1000201010102022,
11210122,
10211202,
43333444,
1011201120112020,
1011201120122010,
1011201220222010,
11200044,
1011201120112020,
1011201120122010,
11211121,
4040404040401111,//50
#GOGOSTART
1011102010102030,
0011102010222010,
1011102010102030,
0011102010112222,
1011102010102030,
0011102010222010,
2211221122112211,
1010201020222010,
1022102010202030,
0011102010222010,
1022102010202030,
0011102010112222,
1022102010202030,
0011102010222010,
11212114,
0020201020222000,
30303034,
0020201110102000,
1011101040400030,
0010201010112222,
1011102010102030,
0022201020201020,
600000000000000000000000000000000000000000000008,//73
#GOGOEND
#END
COURSE:Hard
LEVEL:6
#START
,
1202,
1202,
12202020,
12202020,
1202,
1202,
12202020,
33333333,//9
#GOGOSTART
3011100010102010,
0010100010222000,
1011100010102010,
0010100010111000,
1011100010102010,
0010100010222000,
1111100011111000,
11212020,
1011100010202010,
0010100010222000,
1011100010202010,
0010100010111000,
1011100010202010,
0010100010222000,
11212020,
30303333,
4,//26
#GOGOEND
1202,
1202,
10202202,
1000200000222020,
10220020,
10220020,
10221120,
4030304030304011,
10201120,
11210120,
10201120,
1010201000111000,
10201120,
11210120,
10201120,
43343340,
1010101110102000,
1010101110202000,
1010101110202000,
11200044,
1010101110102000,
1010101110202000,
11211221,
44444040,//50
#GOGOSTART
1011100010102010,
0010100010222000,
1011100010102010,
0010100010111000,
1011100010102010,
0010100010222000,
1111100011111000,
11212020,
1011100010202010,
0010100010222000,
1011100010202010,
0010100010111000,
1011100010202010,
0010100010222000,
11212024,
0020400020222000,
30303034,
0020200010222000,
1011100040400060,
000000000000000000000008000000000000000000000000,
1011100010102010,
0020200020221000,
600000000000000000000000000000000000000000000008,//73
#GOGOEND
,
,
,
#END
COURSE:Normal
LEVEL:5
BALLOON:8,8
SCOREINIT:730
SCOREDIFF:180
#START
,
1200,
1200,
1200,
1202,
1200,
1200,
1111,
600000000000000000000000000008000000000000000000,//9
#GOGOSTART
10101003,
01102000,
10101003,
01101000,
10101003,
01102000,
500000000008000000000000500000000008000000000000,
7008,
10101003,
01102000,
10101003,
01101000,
10101003,
01102000,
1111,
30303330,
4,//26
#GOGOEND
2200,
2200,
2220,
2,
1200,
1200,
1220,
500000000000000000000000000008000000000000000000,
1202,
1202,
10202220,
1202,
1202,
1202,
10202220,
500000000000000000000000000008000000000000000000,
11101110,
11101010,
11101110,
1,
11101110,
11101010,
11101110,
500000000000000000000000000008000000000000000000,//50
#GOGOSTART
10101003,
01102000,
10101003,
01101000,
10101003,
01102000,
500000000008000000000000500000000008000000000000,
7008,
10101003,
01102000,
10101003,
01101000,
10101003,
01102000,
10101004,
02202000,
10101003,
01101000,
10104406,
000000000000000000000008000000000000000000000000,
10101003,
01102220,
600000000000000000000000000000000000000000000008,//73
#GOGOEND
,
,
,
#END
COURSE:Easy
LEVEL:4
BALLOON:5,5
SCOREINIT:530
SCOREDIFF:120
#START
,
1200,
1200,
1200,
1202,
1200,
1200,
1111,
600000000000000000000000000008000000000000000000,//9
#GOGOSTART
10101003,
0120,
10101003,
0110,
10101003,
0120,
500000000008000000000000500000000008000000000000,
7008,
10101003,
0120,
10101003,
0110,
10101003,
0120,
11,
3330,
4,//26
#GOGOEND
22,
22,
2220,
2,
22,
22,
2220,
500000000000000000000000000008000000000000000000,
1202,
1202,
1110,
1200,
1202,
1202,
1110,
500000000000000000000000000008000000000000000000,
10101110,
1110,
10101110,
1,
10101110,
1110,
10101110,
500000000000000000000000000008000000000000000000,//50
#GOGOSTART
10101003,
0120,
10101003,
0110,
10101003,
0120,
500000000008000000000000500000000008000000000000,
7008,
10101003,
0120,
10101003,
0110,
10101003,
0120,
10101004,
0220,
10101003,
0110,
10103306,
000000000000000000000008000000000000000000000000,
10101003,
0122,
600000000000000000000000000000000000000000000008,//73
#GOGOEND
,
,
,
#END