649 lines
16 KiB
Plaintext
649 lines
16 KiB
Plaintext
//TJADB Project
|
|
TITLE:Ta・ko・ta・i・ko
|
|
TITLEJA:タ・コ・タ・イ・コ
|
|
SUBTITLE:--Masako Oogami feat. Miki Narahashi
|
|
BPM:150
|
|
WAVE:Ta・ko・ta・i・ko.ogg
|
|
OFFSET:-3.634
|
|
DEMOSTART:58.027
|
|
|
|
COURSE:Oni
|
|
LEVEL:7
|
|
|
|
STYLE:Double
|
|
SCOREINIT:360
|
|
SCOREDIFF:84
|
|
|
|
|
|
#START P1
|
|
|
|
|
|
,
|
|
3000000010010022,
|
|
1000102000112010,
|
|
0000200011101110,
|
|
1000200000112010,
|
|
00201122,
|
|
10120121,
|
|
0000200022202220,
|
|
1000200000112010,
|
|
00201122,
|
|
10120121,
|
|
0000200011101110,
|
|
10200121,
|
|
00200122,
|
|
10120121,
|
|
0000200022202220,
|
|
10200121,
|
|
0404,
|
|
1110102000112010,
|
|
0010200011101110,
|
|
1210201000112010,
|
|
01201122,
|
|
1110102000112010,
|
|
0010200022202220,
|
|
1210201000112010,
|
|
0010202210102020,
|
|
1110102000112010,
|
|
0010201011101110,
|
|
1210202220102010,
|
|
0010202210102020,
|
|
1110102000112010,
|
|
0010201022202220,
|
|
1210202220102010,
|
|
0010201110102222,
|
|
1000201110102011,
|
|
1010202210102222,
|
|
1000201110102011,
|
|
11223340,
|
|
1000201110102011,
|
|
1010202210102222,
|
|
10012011,
|
|
01202110,
|
|
10112021,
|
|
0010200020102210,
|
|
500000000000000000000000000000000008000000000000,
|
|
|
|
#GOGOSTART
|
|
1120112020111020,
|
|
0000000011201000,
|
|
1101201101201000,
|
|
12210220,
|
|
1120112010002220,
|
|
000000200000200000200000500000000000000008000000,
|
|
2202102202102000,
|
|
21120110,
|
|
1120112020111020,
|
|
0020202011201000,
|
|
1101201101201000,
|
|
30030220,
|
|
1120112011202010,
|
|
04441210,
|
|
2202102202102000,
|
|
40040110,
|
|
|
|
#GOGOEND
|
|
1000200110102010,
|
|
1000200110102020,
|
|
1000200110102010,
|
|
1000200110102020,
|
|
1000200110102010,
|
|
1020202020201022,
|
|
1000222210002222,
|
|
1,
|
|
|
|
|
|
#END
|
|
|
|
|
|
#START P2
|
|
|
|
|
|
,
|
|
3000000010010022,
|
|
1000102000112010,
|
|
0000200011101110,
|
|
1000200000112010,
|
|
00201122,
|
|
10120121,
|
|
0000200022202220,
|
|
1000200000112010,
|
|
00201122,
|
|
10120121,
|
|
0000200011101110,
|
|
10200121,
|
|
00200122,
|
|
10120121,
|
|
0000200022202220,
|
|
10200121,
|
|
0404,
|
|
1110102000112010,
|
|
0010200011101110,
|
|
1210201000112010,
|
|
01201122,
|
|
1110102000112010,
|
|
0010200022202220,
|
|
1210201000112010,
|
|
0010202210102020,
|
|
1110102000112010,
|
|
0010201011101110,
|
|
1210202220102010,
|
|
0010202210102020,
|
|
1110102000112010,
|
|
0010201022202220,
|
|
1210202220102010,
|
|
0010201110102222,
|
|
1000201110102011,
|
|
1010202210102222,
|
|
1000201110102011,
|
|
11223340,
|
|
1000201110102011,
|
|
1010202210102222,
|
|
10012011,
|
|
01202110,
|
|
10112021,
|
|
0010200020102210,
|
|
500000000000000000000000000000000008000000000000,
|
|
|
|
#GOGOSTART
|
|
1120112010002220,
|
|
000000200000200000200000500000000000000008000000,
|
|
1101201101201000,
|
|
12210220,
|
|
1120112020111020,
|
|
0000000011201000,
|
|
2202102202102000,
|
|
21120110,
|
|
1120112020111020,
|
|
0020202011201000,
|
|
1101201101201000,
|
|
30030220,
|
|
1120112011202010,
|
|
04441210,
|
|
2202102202102000,
|
|
40040110,
|
|
|
|
#GOGOEND
|
|
1000200110102010,
|
|
1000200110102020,
|
|
1000200110102010,
|
|
1000200110102020,
|
|
1000200110102010,
|
|
1020202020201022,
|
|
1000222210002222,
|
|
1,
|
|
|
|
|
|
#END
|
|
|
|
|
|
STYLE:Single
|
|
SCOREINIT:600
|
|
SCOREDIFF:140
|
|
|
|
|
|
#START
|
|
|
|
|
|
,
|
|
3000000010010022,
|
|
1000102000112010,
|
|
0000200011101110,
|
|
1000200000112010,
|
|
00201122,
|
|
10120121,
|
|
0000200022202220,
|
|
1000200000112010,
|
|
00201122,
|
|
10120121,
|
|
0000200011101110,
|
|
10200121,
|
|
00200122,
|
|
10120121,
|
|
0000200022202220,
|
|
10200121,
|
|
0404,
|
|
|
|
#SECTION
|
|
#BRANCHSTART p,75,90
|
|
#N
|
|
10120121,
|
|
0010200011101110,
|
|
10210121,
|
|
01201122,
|
|
10120121,
|
|
0010200022202220,
|
|
10210121,
|
|
01201122,
|
|
10120121,
|
|
0010201011101110,
|
|
1000201110102010,
|
|
0010201110102020,
|
|
10120121,
|
|
0010201022202220,
|
|
1000201110102010,
|
|
000000100000200000100000500000000000000008000000,
|
|
|
|
#E
|
|
1110102000102010,
|
|
0010200011101110,
|
|
1210201000102010,
|
|
01201122,
|
|
1110102000102010,
|
|
0010200022202220,
|
|
1210201000102010,
|
|
0010202210102020,
|
|
1110102000102010,
|
|
0010201011101110,
|
|
1210201110102010,
|
|
0010202210102020,
|
|
1110102000102010,
|
|
0010201022202220,
|
|
1210201110102010,
|
|
0010201110102022,
|
|
|
|
#M
|
|
1110102000112010,
|
|
0010200011101110,
|
|
1210201000112010,
|
|
01201122,
|
|
1110102000112010,
|
|
0010200022202220,
|
|
1210201000112010,
|
|
0010202210102020,
|
|
1110102000112010,
|
|
0010201011101110,
|
|
1210202220102010,
|
|
0010202210102020,
|
|
1110102000112010,
|
|
0010201022202220,
|
|
1210202220102010,
|
|
0010201110102222,
|
|
|
|
#SECTION
|
|
#BRANCHSTART p,75,90
|
|
#N
|
|
10210121,
|
|
01221120,
|
|
10210121,
|
|
01201120,
|
|
10210121,
|
|
01221120,
|
|
10012011,
|
|
01202110,
|
|
10112011,
|
|
01202111,
|
|
500000000000000000000000000000000008000000000000,
|
|
|
|
#E
|
|
1000201110102011,
|
|
11221122,
|
|
1000201110102011,
|
|
11203340,
|
|
1000201110102011,
|
|
1010201110102022,
|
|
10012011,
|
|
01202110,
|
|
10112011,
|
|
0010200020102210,
|
|
500000000000000000000000000000000008000000000000,
|
|
|
|
#M
|
|
1000201110102011,
|
|
1010202210102222,
|
|
1000201110102011,
|
|
11223340,
|
|
1000201110102011,
|
|
1010202210102222,
|
|
10012011,
|
|
01202110,
|
|
10112021,
|
|
0010200020102210,
|
|
500000000000000000000000000000000008000000000000,
|
|
|
|
#GOGOSTART
|
|
#SECTION
|
|
#BRANCHSTART p,75,90
|
|
#N
|
|
1020102000111010,
|
|
02221010,
|
|
1011102000102000,
|
|
12210220,
|
|
1020102000111010,
|
|
02221010,
|
|
1022201000201000,
|
|
21120110,
|
|
1020102000111010,
|
|
02221010,
|
|
1011102000102000,
|
|
30030220,
|
|
12121221,
|
|
02221010,
|
|
1022201000201000,
|
|
40040110,
|
|
#GOGOEND
|
|
1000200110102000,
|
|
1000200210102000,
|
|
1000200110102000,
|
|
1000200210102000,
|
|
1000200110102000,
|
|
12222212,
|
|
1000222010002220,
|
|
3,
|
|
|
|
#E
|
|
1120112000111020,
|
|
0020202011201000,
|
|
1101201100201000,
|
|
12210220,
|
|
11201121000111020,
|
|
0020202011201000,
|
|
2202102200102000,
|
|
21120110,
|
|
1120112000111020,
|
|
0020202011201000,
|
|
1101201100201000,
|
|
30030220,
|
|
1120112011202010,
|
|
04441210,
|
|
2202102200102000,
|
|
40040110,
|
|
#GOGOEND
|
|
1000200110102010,
|
|
100020021010201,
|
|
1000200110102010,
|
|
1000200210102010,
|
|
1000200110102010,
|
|
12222212,
|
|
1000222210002222,
|
|
1,
|
|
|
|
#M
|
|
1120112020111020,
|
|
0020202011201000,
|
|
1101201101201000,
|
|
12210220,
|
|
1120112010111020,
|
|
0020202011201000,
|
|
2202102202102000,
|
|
21120110,
|
|
1120112020111020,
|
|
0020202011201000,
|
|
1101201101201000,
|
|
30030220,
|
|
1120112011202010,
|
|
04441210,
|
|
2202102202102000,
|
|
40040110,
|
|
#GOGOEND
|
|
1000200110102010,
|
|
1000200110102020,
|
|
1000200110102010,
|
|
1000200110102020,
|
|
1000200110102010,
|
|
1020202020201022,
|
|
1000222210002222,
|
|
1,
|
|
|
|
#BRANCHEND
|
|
|
|
|
|
#END
|
|
|
|
|
|
COURSE:Hard
|
|
LEVEL:6
|
|
SCOREINIT:500
|
|
SCOREDIFF:150
|
|
|
|
|
|
#START
|
|
|
|
|
|
000000000000000000000000000000000000000000000000,
|
|
300000000000000000000000100000000100000000200200,
|
|
100000000000100000200000000000100000200000100000,
|
|
000000000000200000000000100100100000100100100000,
|
|
000000000000200000000000000000100000200000100000,
|
|
000000000000200000000000100000100000200000200000,
|
|
100000000000100000200000000000100000200000100000,
|
|
000000000000200000000000200200200000200200200000,
|
|
100000000000200000000000000000100000200000100000,
|
|
000000000000200000000000100000100000200000200000,
|
|
100000000000100000200000000000100000200000100000,
|
|
000000000000200000000000100100100000100100100000,
|
|
100000000000200000000000000000100000200000100000,
|
|
000000000000200000000000000000100000200000200000,
|
|
100000000000100000200000000000100000200000100000,
|
|
000000000000200000000000200200200000200200200000,
|
|
100000000000200000000000000000100000200000100000,
|
|
000000000000400000000000000000400000000000000000,
|
|
100000000000100000200000000000100000200000100000,
|
|
000000100000200000000000100100100000100100100000,
|
|
100000000000200000100000000000100000200000100000,
|
|
000000100000200000000000100000100000200000200000,
|
|
100000000000100000200000000000100000200000100000,
|
|
000000100000200000000000200200200000200200200000,
|
|
100000000000200000100000000000100000200000100000,
|
|
000000100000200000000000100000100000200000200000,
|
|
100000000000100000200000000000100000200000100000,
|
|
000000100000200000100000100100100000100100100000,
|
|
100000000000200000100100100000100000200000100000,
|
|
000000100000200000100100100000100000200000200000,
|
|
100000000000100000200000000000100000200000100000,
|
|
000000100000200000100000200200200000200200200000,
|
|
100000000000200000100100100000100000200000100000,
|
|
000000100000200000100000100000000000000000000000,
|
|
100000000000200000100000000000100000200000100000,
|
|
000000100000200000200000100000100000200000000000,
|
|
100000000000200000100000000000100000200000100000,
|
|
000000100000200000000000100000100000200000000000,
|
|
100000000000200000100000000000100000200000100000,
|
|
000000100000200000200000100000100000200000000000,
|
|
100000000000000000100000200000000000100000100000,
|
|
000000100000200000000000200000100000100000000000,
|
|
100000000000100000100000200000000000100000100000,
|
|
000000100000200000000000200000100000100000100000,
|
|
500000000000000000000000000000800000000000000000,
|
|
#GOGOSTART
|
|
100000200000100000200000000000100100100000100000,
|
|
000000200000200000200000100000000000100000000000,
|
|
100000100100100000200000000000100000200000000000,
|
|
100000200000200000100000000000200000200000000000,
|
|
100000200000100000200000000000100100100000100000,
|
|
000000200000200000200000100000000000100000000000,
|
|
100000200200200000100000000000200000100000000000,
|
|
200000100000100000200000000000100000100000000000,
|
|
100000200000100000200000000000100100100000100000,
|
|
000000200000200000200000100000000000100000000000,
|
|
100000100100100000200000000000100000200000000000,
|
|
100000200000200000100000000000400000400000000000,
|
|
100000200000100000200000100000200000200000100000,
|
|
000000200000200000200000100000000000100000000000,
|
|
100000200200200000100000000000200000100000000000,
|
|
200000100000100000200000000000300000300000000000,
|
|
#GOGOEND
|
|
100000000000200000000100100000100000200000000000,
|
|
100000000000200000000200100000100000200000000000,
|
|
100000000000200000000100100000100000200000100000,
|
|
100000000000200000000200100000100000200000000000,
|
|
100000000000200000000100100000100000200000000000,
|
|
100000200000200000200000200000200000100000200000,
|
|
100000000000200200200000100000000000200200200000,
|
|
300000000000000000000000000000000000000000000000,
|
|
|
|
|
|
#END
|
|
|
|
|
|
COURSE:Normal
|
|
LEVEL:6
|
|
SCOREINIT:720
|
|
SCOREDIFF:160
|
|
|
|
|
|
#START
|
|
|
|
|
|
000000000000000000000000000000000000000000000000,
|
|
300000000000000000000000100000000100000000100000,
|
|
000000000000100000200000000000000000200000100000,
|
|
000000000000200000000000100000100000100000100000,
|
|
000000000000200000000000000000100000200000100000,
|
|
000000000000200000000000100000100000200000000000,
|
|
000000000000100000200000000000000000200000100000,
|
|
000000000000200000000000200000200000200000200000,
|
|
000000000000200000000000000000100000200000100000,
|
|
000000000000200000000000100000100000200000000000,
|
|
000000000000100000200000000000000000200000100000,
|
|
000000000000200000000000100000100000100000100000,
|
|
000000000000200000000000000000100000200000100000,
|
|
000000000000200000000000100000100000200000000000,
|
|
000000000000100000200000000000000000200000100000,
|
|
000000000000200000000000200000200000200000200000,
|
|
000000000000200000000000000000100000200000100000,
|
|
000000000000000000000000000000000000000000000000,
|
|
100000000000100000200000000000100000200000100000,
|
|
000000100000200000000000100000100000100000100000,
|
|
000000000000200000100000000000100000200000100000,
|
|
000000100000200000000000100000100000200000000000,
|
|
000000000000100000200000000000100000200000100000,
|
|
000000100000200000000000200000200000200000200000,
|
|
000000000000200000100000000000100000200000100000,
|
|
000000100000200000000000100000100000200000000000,
|
|
000000000000100000200000000000100000200000100000,
|
|
000000100000200000000000100000100000100000100000,
|
|
000000000000200000100000000000100000200000100000,
|
|
000000100000200000000000100000100000200000000000,
|
|
000000000000100000200000000000100000200000100000,
|
|
000000100000200000000000200000200000200000200000,
|
|
000000000000200000000000100000000000200000200000,
|
|
000000100000200000000000300000000000000000000000,
|
|
100000000000200000100000000000100000200000100000,
|
|
000000100000200000000000100000100000200000000000,
|
|
100000000000200000100000000000100000200000100000,
|
|
000000100000200000000000300000000000000000000000,
|
|
100000000000200000100000000000100000200000100000,
|
|
000000100000200000000000100000100000200000000000,
|
|
100000000000000000100000200000000000100000100000,
|
|
000000100000200000000000200000100000100000000000,
|
|
100000000000100000100000200000000000100000100000,
|
|
000000100000200000000000200000100000100000000000,
|
|
500000000000000000000000000000800000000000000000,
|
|
#GOGOSTART
|
|
100000200000100000200000000000100000100000100000,
|
|
000000000000000000000000100000000000200000000000,
|
|
100000000000000000100000000000200000200000000000,
|
|
300000000000000000300000000000000000000000000000,
|
|
100000200000100000200000000000100000100000100000,
|
|
000000000000000000000000100000000000200000000000,
|
|
100000000000000000100000000000100000100000000000,
|
|
400000000000000000400000000000000000000000000000,
|
|
100000200000100000200000000000100000100000100000,
|
|
000000200000200000200000000000000000000000000000,
|
|
100000000000000000100000000000200000200000000000,
|
|
300000000000000000300000000000000000000000000000,
|
|
100000200000100000200000100000100000100000100000,
|
|
000000000000000000000000100000000000200000000000,
|
|
100000000000000000100000000000100000100000000000,
|
|
400000000000000000400000000000000000000000000000,
|
|
#GOGOEND
|
|
100000000000200000000000100000100000000000000000,
|
|
100000000000200000000000100000000000000000000000,
|
|
100000000000200000000000100000100000000000000000,
|
|
100000000000200000000000100000000000000000000000,
|
|
100000000000200000000000100000100000000000000000,
|
|
100000000000200000000000100000000000000000000000,
|
|
100000200000200000000000100000200000200000000000,
|
|
300000000000000000000000000000000000000000000000,
|
|
|
|
|
|
#END
|
|
|
|
|
|
COURSE:Easy
|
|
LEVEL:5
|
|
BALLOON:6
|
|
SCOREINIT:560
|
|
SCOREDIFF:170
|
|
|
|
|
|
#START
|
|
|
|
|
|
000000000000000000000000000000000000000000000000,
|
|
300000000000000000000000000000000000000000000000,
|
|
000000000000100000100000000000000000200000000000,
|
|
000000000000000000000000100000000000100000000000,
|
|
000000000000200000000000000000000000200000200000,
|
|
000000000000200000000000100000000000200000000000,
|
|
000000000000100000100000000000000000200000000000,
|
|
000000000000000000000000100000000000200000000000,
|
|
000000000000200000000000000000000000200000200000,
|
|
000000000000200000000000100000000000200000000000,
|
|
000000000000100000100000000000000000200000000000,
|
|
000000000000000000000000300000000000300000000000,
|
|
000000000000200000000000000000000000200000200000,
|
|
000000000000200000000000100000000000200000000000,
|
|
000000000000100000100000000000000000200000000000,
|
|
000000000000000000000000300000000000400000000000,
|
|
000000000000200000000000000000000000200000200000,
|
|
000000000000000000000000000000000000000000000000,
|
|
100000000000100000100000000000000000200000000000,
|
|
000000000000200000000000100000000000100000000000,
|
|
000000000000200000000000100000000000200000200000,
|
|
000000000000200000000000100000000000200000000000,
|
|
000000000000100000100000000000000000200000000000,
|
|
000000000000200000000000100000000000200000000000,
|
|
000000000000200000000000100000000000200000200000,
|
|
000000000000200000000000100000000000200000000000,
|
|
000000000000100000100000000000000000200000000000,
|
|
000000000000200000000000100000000000100000000000,
|
|
000000000000200000000000100000000000200000200000,
|
|
000000000000200000000000100000000000200000000000,
|
|
000000000000100000100000000000000000200000000000,
|
|
000000000000200000000000100000000000200000000000,
|
|
000000000000200000000000100000000000200000200000,
|
|
000000000000200000000000100000000000000000000000,
|
|
100000000000000000100000000000000000000000000000,
|
|
100000000000000000100000000000000000100000000000,
|
|
100000000000000000100000000000000000000000000000,
|
|
100000000000000000100000000000000000100000000000,
|
|
100000000000000000100000000000000000000000000000,
|
|
100000000000000000100000000000000000100000000000,
|
|
100000000000000000000000200000000000000000100000,
|
|
000000000000100000000000200000000000000000000000,
|
|
100000000000000000000000200000000000000000000000,
|
|
9,
|
|
0008,
|
|
#GOGOSTART
|
|
100000000000100000000000000000100000100000100000,
|
|
000000000000000000000000100000000000100000000000,
|
|
100000000000000000100000000000000000000000000000,
|
|
300000000000000000300000000000000000000000000000,
|
|
100000000000100000000000000000100000100000100000,
|
|
000000000000000000000000100000000000100000000000,
|
|
100000000000000000100000000000000000000000000000,
|
|
400000000000000000400000000000000000000000000000,
|
|
100000000000100000000000000000000000000000000000,
|
|
000000200000200000200000000000000000000000000000,
|
|
100000000000000000100000000000000000000000000000,
|
|
300000000000000000300000000000000000000000000000,
|
|
100000000000100000000000100000100000100000100000,
|
|
000000000000000000000000100000000000100000000000,
|
|
100000000000000000100000000000000000000000000000,
|
|
400000000000000000400000000000000000000000000000,
|
|
#GOGOEND
|
|
100000000000000000000000100000000000200000000000,
|
|
100000000000000000000000200000000000200000000000,
|
|
100000000000000000000000100000000000200000000000,
|
|
100000000000000000000000200000000000200000000000,
|
|
100000000000000000000000100000000000200000000000,
|
|
100000000000000000000000200000000000200000000000,
|
|
100000000000200000000000100000000000200000000000,
|
|
300000000000000000000000000000000000000000000000,
|
|
|
|
|
|
#END
|
|
|