Files
2023-03-24 23:02:25 -04:00

667 lines
12 KiB
Plaintext
Raw Permalink Blame History

This file contains ambiguous Unicode characters
This file contains Unicode characters that might be confused with other characters. If you think that this is intentional, you can safely ignore this warning. Use the Escape button to reveal them.
//TJADB Project
TITLE:Taiko no Tatsujin: Ai no Theme
TITLEJA:太鼓の達人・愛のテーマ
SUBTITLE:--Go Shiina feat. Argie Phine
SUBTITLEJA:太鼓の達人オリジナル曲
BPM:76
WAVE:Taiko no Tatsujin Ai no Theme.ogg
OFFSET:-4.142
DEMOSTART:79.964
COURSE:Oni
LEVEL:7
STYLE:Double
BALLOON:16,150
SCOREINIT:1210
SCOREDIFF:355
#START P1
0002,
0002,
0002,
#BPMCHANGE 75.72
00000210,
0202,
#BPMCHANGE 76.28
00220010,
#BPMCHANGE 75.72
0202,
#BPMCHANGE 76.18
0000200011003000,
#BPMCHANGE 76.02
1000000110002000,
1000000110002000,
1000000110002000,
#BPMCHANGE 76.04
1000000110001011,
#BPMCHANGE 76.17
1212,
#BPMCHANGE 75.93
10201021,
#BPMCHANGE 76.68
1212,
#BPMCHANGE 75.29
10201221,
#BPMCHANGE 75.91
1002,
#BPMCHANGE 74.7
0002,
#BPMCHANGE 75.99
0222,
#BPMCHANGE 76.34
200000000000200000000000500000000000000000008000,
#BPMCHANGE 76.32
,
#BPMCHANGE 76.34
,
#BPMCHANGE 76.1
0202,
#BPMCHANGE 76.24
0000200020101110,
#BPMCHANGE 76
1111,
#BPMCHANGE 76.41
1111,
#BPMCHANGE 76
12321232,
111111100300000000000000,
#BPMCHANGE 74.91
0202,
#BPMCHANGE 76.3
000000000000200000000000500000000000000008000000,
#GOGOSTART
#BPMCHANGE 76.25
100111100111100111100111,
#BPMCHANGE 76.16
100111100111100111111111,
100111100111100111100111,
#BPMCHANGE 75.5
100111100111100111111111,
#BPMCHANGE 75.84
100111100111100111100111,
#BPMCHANGE 76.89
100111100111100111111111,
#BPMCHANGE 75.73
111100300000111100300000,
#BPMCHANGE 75.83
101010101010100000300000000000000000500000008000,
#BPMCHANGE 75.78
300000000000000000000000000000000000500000008000,
100111100111100111111111,
#BPMCHANGE 76
#SECTION
#BRANCHSTART p,75,90
#N
1,
111100300000000000000111,
10001111,
37,
#GOGOEND
08000000,
000000000000000000000000500000000000000000008000,
3,
#E
,
,
,
,
#GOGOEND
,
,
,
#M
1700000000000000,
,
,
0008,
,
000000000000000000000000500000000000000000008000,
3,
#BRANCHEND
#END
#START P2
0200,
0200,
0200,
#BPMCHANGE 75.72
0201,
0202,
#BPMCHANGE 76.28
00220010,
#BPMCHANGE 75.72
0202,
#BPMCHANGE 76.18
2000000011003000,
#BPMCHANGE 76.02
1000000110002000,
1000000110002000,
1000000110002000,
#BPMCHANGE 76.04
1000000110001011,
#BPMCHANGE 76.16
1212,
#BPMCHANGE 75.93
10201021,
#BPMCHANGE 76.68
1212,
#BPMCHANGE 75.29
10201221,
#BPMCHANGE 75.91
1200,
#BPMCHANGE 74.7
0200,
#BPMCHANGE 75.99
0222,
#BPMCHANGE 76.34
200000000000200000000000500000000000000000008000,
#BPMCHANGE 76.32
,
#BPMCHANGE 76.34
,
#BPMCHANGE 76.1
0202,
#BPMCHANGE 76.24
0000200020101110,
#BPMCHANGE 76
02020202,
#BPMCHANGE 76.41
02020202,
#BPMCHANGE 76
12321232,
111111100300000000000000,
#BPMCHANGE 74.91
0202,
#BPMCHANGE 76.3
000000000000200000000000500000000000000008000000,
#GOGOSTART
#BPMCHANGE 76.25
100111100111100111100111,
#BPMCHANGE 76.16
100111100111100111111111,
100111100111100111100111,
#BPMCHANGE 75.5
100111100111100111111111,
#BPMCHANGE 75.84
100111100111100111100111,
#BPMCHANGE 76.89
100111100111100111111111,
#BPMCHANGE 75.73
111100300000111100300000,
#BPMCHANGE 75.83
101010101010100000300000000000000000500000008000,
#BPMCHANGE 75.78
300000000000000000000000000000000000500000008000,
100111100111100111111111,
#BPMCHANGE 76
#SECTION
#BRANCHSTART p,75,90
#N
1,
111100300000000000000111,
10001111,
37,
#GOGOEND
08000000,
000000000000000000000000500000000000000000008000,
3,
#E
,
,
,
,
#GOGOEND
,
,
,
#M
1700000000000000,
,
,
0008,
,
000000000000000000000000500000000000000000008000,
3,
#BRANCHEND
#END
STYLE:Single
BALLOON:16,150
SCOREINIT:1210
SCOREDIFF:355
#START
0002,
0002,
0002,
#BPMCHANGE 75.72
00000210,
0202,
#BPMCHANGE 76.28
00220010,
#BPMCHANGE 75.72
0202,
#BPMCHANGE 76.18
0000200011003000,
#BPMCHANGE 76.02
1000000110002000,
1000000110002000,
1000000110002000,
#BPMCHANGE 76.04
1000000110001011,
#BPMCHANGE 76.16
1212,
#BPMCHANGE 75.93
10201021,
#BPMCHANGE 76.68
1212,
#BPMCHANGE 75.29
10201221,
#BPMCHANGE 75.91
1002,
#BPMCHANGE 74.7
0002,
#BPMCHANGE 75.99
0222,
#BPMCHANGE 76.34
200000000000200000000000500000000000000008000000,
#BPMCHANGE 76.32
,
#BPMCHANGE 76.34
,
#BPMCHANGE 76.1
0202,
#BPMCHANGE 76.24
0000200020101110,
#BPMCHANGE 76
1111,
#BPMCHANGE 76.41
1111,
#BPMCHANGE 76
12321232,
111111100300000000000000,
#BPMCHANGE 74.91
0202,
#BPMCHANGE 76.3
000000000000200000000000500000000000000008000000,
#GOGOSTART
#BPMCHANGE 76.25
100111100111100111100111,
#BPMCHANGE 76.16
100111100111100111111111,
100111100111100111100111,
#BPMCHANGE 75.5
100111100111100111111111,
#BPMCHANGE 75.84
100111100111100111100111,
#BPMCHANGE 76.89
100111100111100111111111,
#BPMCHANGE 75.73
111100300000111100300000,
#BPMCHANGE 75.83
101010101010100000300000000000000000500000008000,
#BPMCHANGE 75.78
300000000000000000000000000000000000500000008000,
100111100111100111111111,
#BPMCHANGE 76
#SECTION
#BRANCHSTART p,75,90
#N
1,
111100300000000000000111,
10001111,
37,
#GOGOEND
08000000,
000000000000000000000000500000000000000000008000,
3,
#E
,
,
,
,
#GOGOEND
,
,
,
#M
1700000000000000,
,
,
0008,
,
000000000000000000000000500000000000000000008000,
3,
#BRANCHEND
#END
COURSE:Hard
LEVEL:8
BALLOON:14
SCOREINIT:1030
SCOREDIFF:313
#START
0002,
0002,
0002,
#BPMCHANGE 75.72
00000210,
0202,
#BPMCHANGE 76.28
00220010,
#BPMCHANGE 75.72
0202,
#BPMCHANGE 76.18
0000200011003000,
#BPMCHANGE 76.02
1000000110002000,
1000000110002000,
1000000110002000,
#BPMCHANGE 76.04
1000000110001011,
#BPMCHANGE 76.16
1212,
#BPMCHANGE 75.93
10201021,
#BPMCHANGE 76.68
1212,
#BPMCHANGE 75.29
10201221,
#BPMCHANGE 75.91
1002,
#BPMCHANGE 74.7
0002,
#BPMCHANGE 75.99
0222,
#BPMCHANGE 76.34
200000000000200000000000500000000000000008000000,
#BPMCHANGE 76.32
,
#BPMCHANGE 76.34
,
#BPMCHANGE 76.1
0202,
#BPMCHANGE 76.24
0000200020101110,
#BPMCHANGE 76
1111,
#BPMCHANGE 76.41
1111,
#BPMCHANGE 76
12321232,
111111100300000000000000,
#BPMCHANGE 74.91
0202,
#BPMCHANGE 76.3
000000000000200000000000500000000000000008000000,
#GOGOSTART
#BPMCHANGE 76.25
100111100111100111100111,
#BPMCHANGE 76.16
100111100111100111111111,
100111100111100111100111,
#BPMCHANGE 75.5
100111100111100111111111,
#BPMCHANGE 75.84
100111100111100111100111,
#BPMCHANGE 76.89
100111100111100111111111,
#BPMCHANGE 75.73
111100300000111100300000,
#BPMCHANGE 75.83
101010101010100000300000000000000000500000008000,
#BPMCHANGE 75.78
300000000000000000000000000000000000500000008000,
100111100111100111111111,
#BPMCHANGE 76
1,
111100300000000000000111,
10001111,
37,
#GOGOEND
08000000,
000000000000000000000000500000000000000000008000,
3,
#END
COURSE:Normal
LEVEL:4
BALLOON:80
SCOREINIT:1120
SCOREDIFF:538
#START
000000000000000000000000000000000000200000000000,
000000000000000000000000000000000000200000000000,
000000000000000000000000000000000000200000000000,
#BPMCHANGE 75.72
000000000000000000000000000000200000100000000000,
000000000000200000000000000000000000200000000000,
#BPMCHANGE 76.28
000000000000200000200000000000000000100000000000,
#BPMCHANGE 75.72
000000000000200000000000000000000000200000000000,
#BPMCHANGE 76.18
000000000000200000000000300000000000300000000000,
#BPMCHANGE 76.02
100000000000000000000100100000000000200000000000,
100000000000000000000100100000000000200000000000,
100000000000000000000100100000000000200000000000,
#BPMCHANGE 76.04
100000000000000000000100100000000000100000100000,
#BPMCHANGE 76.16
100000000000200000000000100000000000200000000000,
#BPMCHANGE 75.93
100000000000200000000000100000000000200000100000,
#BPMCHANGE 76.68
100000000000200000000000100000000000200000000000,
#BPMCHANGE 75.29
100000000000200000000000100000200000200000000000,
#BPMCHANGE 75.91
100000000000000000000000000000000000200000000000,
#BPMCHANGE 74.7
000000000000000000000000000000000000200000000000,
#BPMCHANGE 75.99
000000000000200000000000200000000000200000000000,
#BPMCHANGE 76.34
200000000000200000000000500000000000000080000000,
#BPMCHANGE 76.32
000000000000000000000000000000000000000000000000,
#BPMCHANGE 76.34
000000000000000000000000000000000000000000000000,
#BPMCHANGE 76.1
000000000000200000000000000000000000200000000000,
#BPMCHANGE 76.24
000000000000200000000000200000100000100000100000,
#BPMCHANGE 76
100000000000100000000000100000000000100000000000,
#BPMCHANGE 76.41
100000000000100000000000100000000000100000000000,
#BPMCHANGE 76
100000000000300000000000100000000000300000000000,
100000100000100000300000000000000000000000000000,
#BPMCHANGE 74.91
000000000000200000000000000000000000200000000000,
#BPMCHANGE 76.3
000000000000200000000000500000000000000080000000,
#BPMCHANGE 76.25
#GOGOSTART
100000100000100000000000100000100000100000000000,
#BPMCHANGE 76.16
100000100000100000000000100000100000100000100000,
100000100000100000000000100000100000100000000000,
#BPMCHANGE 75.5
100000100000100000000000100000100000100000100000,
#BPMCHANGE 75.84
100000100000100000000000100000100000100000000000,
#BPMCHANGE 76.89
100000100000100000000000100000100000100000000000,
#BPMCHANGE 75.73
100000100000300000000000100000100000300000000000,
#BPMCHANGE 75.83
100000100000100000300000000000000000500000800000,
#BPMCHANGE 75.78
300000000000000000000000000000000000500000080000,
100000100000100000000000100000100000100000100000,
#BPMCHANGE 76
100000700000000000000000000000000000000000000000,
000000000000000000000000000000000000000000000000,
000000000000000000000000000000000000000000000000,
000000000000000000000000000000000000800000000000,
#GOGOEND
000000000000000000000000000000000000000000000000,
000000000000000000000000500000000000000000800000,
300000000000000000000000000000000000000000000000,
#END
COURSE:Easy
LEVEL:4
BALLOON:70
SCOREINIT:770
SCOREDIFF:373
#START
000000000000000000000000000000000000200000000000,
000000000000000000000000000000000000200000000000,
000000000000000000000000000000000000200000000000,
#BPMCHANGE 75.72
000000000000000000000000000000200000100000000000,
000000000000200000000000000000000000200000000000,
#BPMCHANGE 76.28
000000000000200000200000000000000000100000000000,
#BPMCHANGE 75.72
000000000000200000000000000000000000200000000000,
#BPMCHANGE 76.18
000000000000200000000000300000000000300000000000,
#BPMCHANGE 76.02
100000000000000000000100100000000000000000000000,
100000000000000000000100100000000000000000000000,
100000000000000000000100100000000000200000000000,
#BPMCHANGE 76.04
100000000000000000000100100000000000000000000000,
#BPMCHANGE 76.16
100000000000200000000000100000000000200000000000,
#BPMCHANGE 75.93
100000000000200000000000100000000000100000100000,
#BPMCHANGE 76.68
100000000000200000000000100000000000200000000000,
#BPMCHANGE 75.29
100000000000200000000000100000000000200000000000,
#BPMCHANGE 75.91
100000000000000000000000000000000000200000000000,
#BPMCHANGE 74.7
000000000000000000000000000000000000200000000000,
#BPMCHANGE 75.99
000000000000200000000000200000000000200000000000,
#BPMCHANGE 76.34
200000000000200000000000500000000000000080000000,
#BPMCHANGE 76.32
000000000000000000000000000000000000000000000000,
#BPMCHANGE 76.34
000000000000000000000000000000000000000000000000,
#BPMCHANGE 76.1
000000000000200000000000000000000000200000000000,
#BPMCHANGE 76.24
000000000000200000000000200000100000100000000000,
#BPMCHANGE 76
100000000000100000000000100000000000100000000000,
#BPMCHANGE 76.41
100000000000100000000000100000000000100000000000,
#BPMCHANGE 76
100000000000300000000000100000000000300000000000,
100000000000300000300000000000000000000000000000,
#BPMCHANGE 74.91
000000000000200000000000000000000000200000000000,
#BPMCHANGE 76.3
000000000000200000000000500000000000000080000000,
#BPMCHANGE 76.25
#GOGOSTART
100000100000100000000000100000100000100000000000,
#BPMCHANGE 76.16
100000100000100000000000100000100000100000000000,
100000100000100000000000100000100000100000000000,
#BPMCHANGE 75.5
100000100000100000000000100000100000100000000000,
#BPMCHANGE 75.84
100000100000100000000000100000100000100000000000,
#BPMCHANGE 76.89
100000100000100000000000100000100000100000000000,
#BPMCHANGE 75.73
300000000000300000000000300000000000300000000000,
#BPMCHANGE 75.83
100000000000300000300000000000000000500000800000,
#BPMCHANGE 75.78
300000000000000000000000000000000000500000080000,
100000100000100000000000100000100000100000000000,
#BPMCHANGE 76
100000700000000000000000000000000000000000000000,
000000000000000000000000000000000000000000000000,
000000000000000000000000000000000000000000000000,
000000000000000000000000000000000000800000000000,
#GOGOEND
000000000000000000000000000000000000000000000000,
000000000000000000000000500000000000000000800000,
300000000000000000000000000000000000000000000000,
#END