Files
ESE/10 Taiko Towers/Taiko Tower 01/Taiko Tower 1 Kara-kuchi.tja
2023-06-15 19:15:39 -05:00

89 lines
1.3 KiB
Plaintext

//TJADB Project
TITLE:Taiko Tower 1 Kara-kuchi
SUBTITLE:--Metronome Track 1
BPM:70
WAVE:Metronome Track 1.ogg
OFFSET:-3.531
DEMOSTART:3.531
LIFE:5
COURSE:Tower
LEVEL:1
SCOREINIT:2300
SCOREDIFF:500
#START
1011100010000000,
#BPMCHANGE 72.5
1011100010000000,
#BPMCHANGE 75
1011100010111000,
#BPMCHANGE 77.5
1011100030000000,
#BPMCHANGE 80
1011100010000000,
#BPMCHANGE 82.5
1011100010000000,
#BPMCHANGE 85
1011100010111000,
#BPMCHANGE 87.5
2022200030000000,
#BPMCHANGE 90
1011100010000000,
#BPMCHANGE 92.5
1011100010000000,
#BPMCHANGE 95
1011100010111000,
#BPMCHANGE 97.5
1011100030000000,
#BPMCHANGE 100
1011100010000000,
#BPMCHANGE 102.5
1011100010000000,
#BPMCHANGE 105
1011100010111000,
#BPMCHANGE 107.5
2022200030000000,
#BPMCHANGE 110
1011100020000000,
#BPMCHANGE 112.5
11221000,
#BPMCHANGE 115
1110100020000000,
#BPMCHANGE 117.5
11103000,
#BPMCHANGE 120
1011100020000000,
#BPMCHANGE 122.5
11221000,
#BPMCHANGE 125
1110100020000000,
#BPMCHANGE 127.5
11103000,
#BPMCHANGE 130
10101110,
#BPMCHANGE 132.5
22201110,
#BPMCHANGE 135
10101110,
#BPMCHANGE 137.5
22203000,
#BPMCHANGE 140
10101110,
#BPMCHANGE 142.5
11102220,
#BPMCHANGE 145
10101110,
#BPMCHANGE 147.5
500000000000000000000000000008000000000000000000,
#MEASURE 2/4
#BPMCHANGE 150
3,
#END