89 lines
1.4 KiB
Plaintext
89 lines
1.4 KiB
Plaintext
//TJADB Project
|
|
TITLE:Taiko Tower 4 Kara-kuchi
|
|
SUBTITLE:--Metronome Track 1
|
|
BPM:70
|
|
WAVE:Metronome Track 1.ogg
|
|
OFFSET:-3.531
|
|
DEMOSTART:3.531
|
|
LIFE:3
|
|
|
|
COURSE:Tower
|
|
LEVEL:4
|
|
SCOREINIT:1250
|
|
SCOREDIFF:300
|
|
|
|
|
|
#START
|
|
|
|
|
|
1001102001102220,
|
|
#BPMCHANGE 72.5
|
|
1001102201101000,
|
|
#BPMCHANGE 75
|
|
1001102001102220,
|
|
#BPMCHANGE 77.5
|
|
1001102201101000,
|
|
#BPMCHANGE 80
|
|
1010100202102002,
|
|
#BPMCHANGE 82.5
|
|
1010102101103000,
|
|
#BPMCHANGE 85
|
|
1010100202102002,
|
|
#BPMCHANGE 87.5
|
|
1010102111103000,
|
|
#BPMCHANGE 90
|
|
1221100202101221,
|
|
#BPMCHANGE 92.5
|
|
1001202101104000,
|
|
#BPMCHANGE 95
|
|
1221100202101221,
|
|
#BPMCHANGE 97.5
|
|
1001200201104000,
|
|
#BPMCHANGE 100
|
|
1011011011011022,
|
|
#BPMCHANGE 102.5
|
|
1011011012011000,
|
|
#BPMCHANGE 105
|
|
1011011011011022,
|
|
#BPMCHANGE 107.5
|
|
1011011012211000,
|
|
#BPMCHANGE 110
|
|
1012011012011012,
|
|
#BPMCHANGE 112.5
|
|
0110120111103000,
|
|
#BPMCHANGE 115
|
|
1012011012011012,
|
|
#BPMCHANGE 117.5
|
|
0110120122211000,
|
|
#BPMCHANGE 120
|
|
1010111202011221,
|
|
#BPMCHANGE 122.5
|
|
0221022102211000,
|
|
#BPMCHANGE 125
|
|
1010111202011221,
|
|
#BPMCHANGE 127.5
|
|
0221022111121000,
|
|
#BPMCHANGE 130
|
|
1011101110111221,
|
|
#BPMCHANGE 132.5
|
|
1011101110112221,
|
|
#BPMCHANGE 135
|
|
1011101110111221,
|
|
#BPMCHANGE 137.5
|
|
1011101110112221,
|
|
#BPMCHANGE 140
|
|
1021102110211112,
|
|
#BPMCHANGE 142.5
|
|
1021102110211112,
|
|
#BPMCHANGE 145
|
|
1021102110211112,
|
|
#BPMCHANGE 147.5
|
|
1112111211121111,
|
|
#MEASURE 2/4
|
|
#BPMCHANGE 150
|
|
1,
|
|
|
|
|
|
#END
|
|
|