168 lines
2.7 KiB
Plaintext
168 lines
2.7 KiB
Plaintext
//TJADB Project
|
|
TITLE:Taiko Tower 7 Kara-kuchi
|
|
SUBTITLE:--Metronome Track 2
|
|
BPM:70
|
|
WAVE:Metronome Track 2.ogg
|
|
OFFSET:-3.531
|
|
DEMOSTART:89.707
|
|
LIFE:5
|
|
|
|
COURSE:Tower
|
|
LEVEL:7
|
|
SCOREINIT:720
|
|
SCOREDIFF:170
|
|
|
|
|
|
#START
|
|
|
|
|
|
1010100011101000,
|
|
#BPMCHANGE 72.5
|
|
1010100011101000,
|
|
#BPMCHANGE 75
|
|
1010100011101000,
|
|
#BPMCHANGE 77.5
|
|
1110111011101000,
|
|
#BPMCHANGE 80
|
|
1010100011101000,
|
|
#BPMCHANGE 82.5
|
|
1010100011101000,
|
|
#BPMCHANGE 85
|
|
1010100011101000,
|
|
#BPMCHANGE 87.5
|
|
1110111011101000,
|
|
#BPMCHANGE 90
|
|
1010200011102000,
|
|
#BPMCHANGE 92.5
|
|
1010200011102000,
|
|
#BPMCHANGE 95
|
|
1010200011102000,
|
|
#BPMCHANGE 97.5
|
|
1110111011102000,
|
|
#BPMCHANGE 100
|
|
1010200011102000,
|
|
#BPMCHANGE 102.5
|
|
1010200011102000,
|
|
#BPMCHANGE 105
|
|
1010200011102000,
|
|
#BPMCHANGE 107.5
|
|
1110111011102000,
|
|
#BPMCHANGE 110
|
|
1011200011102000,
|
|
#BPMCHANGE 112.5
|
|
1011200011102000,
|
|
#BPMCHANGE 115
|
|
1011200011102000,
|
|
#BPMCHANGE 117.5
|
|
1110111011112000,
|
|
#BPMCHANGE 120
|
|
1011200011102000,
|
|
#BPMCHANGE 122.5
|
|
1011200011102000,
|
|
#BPMCHANGE 125
|
|
1011200011102000,
|
|
#BPMCHANGE 127.5
|
|
1110111011112000,
|
|
#BPMCHANGE 130
|
|
1011210110102000,
|
|
#BPMCHANGE 132.5
|
|
1011210110102000,
|
|
#BPMCHANGE 135
|
|
1011210110102000,
|
|
#BPMCHANGE 137.5
|
|
1122112211221000,
|
|
#BPMCHANGE 140
|
|
1011210110102000,
|
|
#BPMCHANGE 142.5
|
|
1011210110102000,
|
|
#BPMCHANGE 145
|
|
1011210110102000,
|
|
#BPMCHANGE 147.5
|
|
1122112211221000,
|
|
#BPMCHANGE 150
|
|
1011210110112101,
|
|
#BPMCHANGE 152.5
|
|
1011210111201120,
|
|
#BPMCHANGE 155
|
|
1011210110112101,
|
|
#BPMCHANGE 157.5
|
|
1011210111201120,
|
|
#BPMCHANGE 160
|
|
1011210110112101,
|
|
#BPMCHANGE 162.5
|
|
1011210111201120,
|
|
#BPMCHANGE 165
|
|
1011210110112101,
|
|
#BPMCHANGE 167.5
|
|
1011210111201120,
|
|
#BPMCHANGE 170
|
|
1111200011112000,
|
|
#BPMCHANGE 172.5
|
|
1111222211112000,
|
|
#BPMCHANGE 175
|
|
1111200011112000,
|
|
#BPMCHANGE 177.5
|
|
1111222211112000,
|
|
#BPMCHANGE 180
|
|
1111200211112002,
|
|
#BPMCHANGE 182.5
|
|
1111222211112000,
|
|
#BPMCHANGE 185
|
|
1111200211112002,
|
|
#BPMCHANGE 187.5
|
|
1111222211112000,
|
|
#BPMCHANGE 190
|
|
1001102000101022,
|
|
#BPMCHANGE 192.5
|
|
2002201000102011,
|
|
#BPMCHANGE 195
|
|
1001102000101022,
|
|
#BPMCHANGE 197.5
|
|
2002201000102011,
|
|
#BPMCHANGE 200
|
|
10201120,
|
|
#BPMCHANGE 202.5
|
|
1011201020101120,
|
|
#BPMCHANGE 205
|
|
20102212,
|
|
#BPMCHANGE 207.5
|
|
1020112110102000,
|
|
#BPMCHANGE 210
|
|
10201120,
|
|
#BPMCHANGE 212.5
|
|
1011201020101120,
|
|
#BPMCHANGE 215
|
|
20102212,
|
|
#BPMCHANGE 217.5
|
|
1020112110102000,
|
|
#BPMCHANGE 220
|
|
1010200011102000,
|
|
#BPMCHANGE 222.5
|
|
1010111010102000,
|
|
#BPMCHANGE 225
|
|
1010200011102000,
|
|
#BPMCHANGE 227.5
|
|
1010111010102000,
|
|
#BPMCHANGE 230
|
|
1101101101102000,
|
|
#BPMCHANGE 232.5
|
|
2202202202201000,
|
|
#BPMCHANGE 235
|
|
1101101101102000,
|
|
#BPMCHANGE 237.5
|
|
2202202202201000,
|
|
#BPMCHANGE 240
|
|
1010111010102000,
|
|
#BPMCHANGE 242.5
|
|
1010111010102000,
|
|
#BPMCHANGE 245
|
|
1010101010101110,
|
|
#BPMCHANGE 247.5
|
|
1010101020202220,
|
|
#BPMCHANGE 250
|
|
3,
|
|
|
|
|
|
#END
|
|
|