Files
ESE/04 Children and Folk/Bu Yu Ge/Bu Yu Ge.tja
T

239 lines
4.6 KiB
Plaintext

//TJADB Project
TITLE:Bu Yu Ge
TITLEZH:捕魚歌
SUBTITLE:--Zhang Renmo
BPM:140
WAVE:Bu Yu Ge.ogg
OFFSET:-1.900
DEMOSTART:15.607
COURSE:Oni
LEVEL:6
SCOREINIT:690
SCOREDIFF:180
#START
100000100100200000000000100000200000200000000000,
100000100100200000100000000000400000400000000000,
100000100100200000000000100000200000200000000000,
100000100100200000100000000000400000400000000000,
100000100100200000000000100000200000200000000000,
100000100100200000100000000000400000400000000000,
100000100100200000000000100000200000200000000000,
100000100100200000100000000000400000400000000000,
100000100100200000000000100000100100200000000000,
200000200200200000000000200000200000200000000000,
100000100100200000100000100000100100200000100000,
100000100100100000100000100000200000200000000000,
100000100100100000100000200000200200200000200000,
100000100100100000100000200000200200200000000000,
100000100100100000100000200000200200200000200000,
100000100100100000100000200000200200200000000000,
100000100100200000000000100000100100200000000000,
200000200200200000000000200000200000200000000000,
100000100100200000100000100000100100200000100000,
100000100100100000100000100000200000200000000000,
100000100100100000100000200000200200200000200000,
100000100100100000100000200000200200200000000000,
100000100100100000100000200000200200200000200000,
100000100100100000100000200000200200200000000000,
100000000000100000200000000000200000000000100000,
000000100000200000000000100000200000200000000000,
100000000000100000200000000000200000000000100000,
000000100000200000000000100000200000200000000000,
100000000000100000200000000000200000000000100000,
000000100000200000000000100000200000200000200200,
100000000000100000200000000000200000000000100000,
000000100000200000000000200000200200100100100000,
200000000000100000200000200000100000100100100000,
#GOGOSTART
100000100100200000000000100000100100200000000000,
200000200200200000000000200000200000200000000000,
100000100100200000100000100000100100200000100000,
100000100100100000100000100000200000200000000000,
100000100100100000100000200000200200200000200000,
100000100100100000100000200000200200200000000000,
100000100100100000100000200000200200200000200000,
100000100100100000100000200000200200200000000000,
300000000000300000000000300000300000300000300000,
300000000000300000000000300000000000000000000000,
100000100100100000100000200000200200200000200000,
300000000000300000000000300000000000000000000000,
300000000000400000000000300000400000300000400000,
300000000000400000000000300000000000000000000000,
100000100100100000100000200000200200200000200000,
300000000000400000000000300000000000000000000000,
#GOGOEND
#END
COURSE:Hard
LEVEL:4
#START
10201220,
10210440,
10201220,
10210440,
10201220,
10210440,
10201220,
10210440,
#SECTION
#BRANCHSTART p,75,90
#N
1010100010111000,
22202220,
11101110,
10111020,
11102220,
11102220,
10111010,
10111020,
11101110,
22202220,
11101110,
10111020,
11102220,
11102220,
10111010,
10111020,
10110101,
01101220,
10110101,
01101220,
10110101,
01101220,
10110101,
01101220,
20222200,
#E
1010100010111000,
2020200020222000,
1010100010111000,
11111020,
1010100020222000,
1010100020222000,
11111010,
11111020,
1010100010111000,
2020200020222000,
1011100010101000,
11111020,
1010100020222000,
1010100020222000,
11111010,
11111020,
10110101,
01101220,
10110101,
01101220,
10110101,
01101220,
10110101,
01101220,
20222200,
#M
1011100010111000,
2022200020222000,
1011100010111000,
1011101010002000,
1011100020222000,
1011100020222020,
1011101010001000,
1011101010002000,
1011100010111000,
2022200020222000,
1011100010111000,
1011101010002000,
1011100020222000,
1011100020222000,
1011101010001000,
1011101010002000,
10110101,
01101220,
10110101,
01101220,
10110101,
01101220,
10110101,
01101220,
20222200,
#GOGOSTART
#SECTION
#BRANCHSTART p,75,90
#N
11101110,
22202220,
11101110,
10111020,
11102220,
11102220,
10111010,
10111020,
30303333,
3330,
11101110,
3330,
40404444,
4440,
10111010,
3330,
#E
1010100010111000,
2020200020222000,
1010100010111000,
11111020,
1010100020222000,
1010100020222000,
11111010,
11111020,
30303333,
3330,
1011100010101000,
3330,
40404444,
4440,
11111010,
3330,
#M
1011100010111000,
2022200020222000,
1011100010111010,
1011101010002000,
1011100020222000,
1011100020222020,
1011101010001000,
1011101010002000,
30303333,
3330,
1011100010111000,
3330,
40404444,
4440,
1011101010001000,
3330,
#BRANCHEND
#GOGOEND
#END