Files
ESE/04 Children and Folk/Momotarou -Beena Version-/Momotarou -Beena Version-.tja
T
2023-06-15 19:15:39 -05:00

73 lines
427 B
Plaintext

TITLE:Momotarou -Beena Version-
TITLEJA:ももたろう -Beena Version-
SUBTITLE:--
BPM:114.15
WAVE:Momotarou -Beena Version-.ogg
OFFSET:-4.249
DEMOSTART:0.041
COURSE:Hard
LEVEL:4
#START
1212,
1220,
0101,
1220,
11,
2110,
1122,
1210,
12,
1211,
1212,
5008,
,
,
0101,
0110,
0101,
0122,
1112,
1158,
#END
COURSE:Easy
LEVEL:3
#START
1,
11,
11,
1,
11,
1,
11,
11,
11,
1110,
11,
1,
,
,
11,
1,
11,
11,
11,
1158,
#END