297 lines
10 KiB
Plaintext
297 lines
10 KiB
Plaintext
//TJADB Project
|
|
TITLE:Omocha no Cha-cha-cha -New Audio-
|
|
TITLEJA:おもちゃのチャチャチャ
|
|
SUBTITLE:--Nobuyoshi Koshibe
|
|
BPM:120
|
|
WAVE:Omocha no Cha-cha-cha -New Audio-.ogg
|
|
OFFSET:-0.105
|
|
DEMOSTART:8.101
|
|
|
|
COURSE:Oni
|
|
LEVEL:6
|
|
BALLOON:4
|
|
SCOREINIT:700
|
|
SCOREDIFF:205
|
|
|
|
|
|
#START
|
|
|
|
|
|
#GOGOSTART
|
|
100000100000200000100000400000400000400000000000,
|
|
100000100000200000100000400000400000400000000000,
|
|
000000400000400000400000100000100000200000100000,
|
|
400000000000400000000000400000000000000000000000,
|
|
|
|
#GOGOEND
|
|
100000000100200000200000100000000100200000200000,
|
|
100000100100100000100000100000000200200000200000,
|
|
100000000100200000200000100000200000100000200000,
|
|
100000000100200000200000100000000100100000200000,
|
|
100000100100200000200000100000200200200000000000,
|
|
100100200000100000200000100000000200200000200000,
|
|
100000000100200000200000100000100100200000100000,
|
|
400000000000400000000000400000000000000000000000,
|
|
|
|
#GOGOSTART
|
|
100000100000200000100000400000400000400000000000,
|
|
100000100000200000100000400000400000400000100000,
|
|
100000400000400000400000100000100000200000100000,
|
|
400000000000400000000000400000000000000000000000,
|
|
|
|
#GOGOEND
|
|
200000000000200000000000200000000000400000400000,
|
|
400000000100200000100000200000000000400000400000,
|
|
200000000000200000000000200000000000400000400000,
|
|
300000000000000000000000100000100000200000200000,
|
|
100000000100200000200000100000000100200000200000,
|
|
100100200000100100200000100000000200200000200000,
|
|
100000000100200000200000100000200200100000200000,
|
|
100000100100100000000000300000000100100000200000,
|
|
100000000100200000200000100000000100200000200000,
|
|
100000200000100000200000100000000200200000200000,
|
|
100000000100200000200000100000100100200000100000,
|
|
400000000000400000000000400000000000000000000000,
|
|
|
|
#GOGOSTART
|
|
100000100000400000100000400000400000400000200200,
|
|
100000100000400000100000400000400000400000200200,
|
|
100000400000400000400000100000100000400000100000,
|
|
400000000000400000000000400000000000000000000000,
|
|
|
|
#GOGOEND
|
|
200000100000200000100000200100100100200000100000,
|
|
300000000000200000000000200000000000400000400000,
|
|
100000100000200000100000200100100100200000100000,
|
|
300000000000000000000000100000100000200000200000,
|
|
100000000100200000200000100000000100200000200000,
|
|
100100200000100100200000100000000200200000200000,
|
|
100000000100200000200000100000200200200000200000,
|
|
100000100100200000100000100000000200200000200000,
|
|
100000100100100000100000400000000000400000000000,
|
|
100000200000100000200000700000000000000000800000,
|
|
000000100100200000200000600008000000100000200000,
|
|
400000000000400000000000400000000000000000000000,
|
|
|
|
#GOGOSTART
|
|
100000100000400000100000400000400000400000200200,
|
|
100000100000400000100000400000400000400000200200,
|
|
100000400000400000400000100100100000400000100000,
|
|
400000000000400000000000400000000000000000000000,
|
|
|
|
#GOGOEND
|
|
|
|
|
|
#END
|
|
|
|
|
|
COURSE:Hard
|
|
LEVEL:4
|
|
SCOREINIT:730
|
|
SCOREDIFF:230
|
|
|
|
|
|
#START
|
|
|
|
|
|
#GOGOSTART
|
|
100000100000200000100000200000200000200000000000,
|
|
100000100000200000100000200000200000200000000000,
|
|
000000200000200000200000100000100000200000000000,
|
|
200000000000200000000000200000000000000000000000,
|
|
#GOGOEND
|
|
100000000100100000100000100000000100100000100000,
|
|
100000200000100000200000100000000000000000000000,
|
|
100000000100100000100000100000000100100000100000,
|
|
100000100100100000100000100000000000000000000000,
|
|
100000200000200000100000100000200000200000000000,
|
|
100000200000200000100000100000000000000000000000,
|
|
000000100000100000200000100000100000200000100000,
|
|
200000000000200000000000200000000000000000000000,
|
|
#GOGOSTART
|
|
100000100000200000100000200000200000200000000000,
|
|
100000100000200000100000200000200000200000000000,
|
|
000000200000200000200000100000100000200000000000,
|
|
400000000000400000000000400000000000000000000000,
|
|
#GOGOEND
|
|
200000000000200000000000200000000000200000200000,
|
|
200000000100100000100000100000000000200000200000,
|
|
200000000000200000000000200000000000200000000000,
|
|
300000000000000000000000100000100000100000100000,
|
|
100000000100100000100000100000000100100000100000,
|
|
100000200000100000200000100000000000000000000000,
|
|
100000000100100000100000100000000100100000100000,
|
|
100000100100100000000000300000000000000000000000,
|
|
100000100000200000100000100000000000200000200000,
|
|
100000100000200000100000100000000000000000000000,
|
|
000000200000200000200000100000100000200000100000,
|
|
400000000000400000000000400000000000000000000000,
|
|
#GOGOSTART
|
|
100000100000200000100000200000200000200000000000,
|
|
100000100000200000100000200000200000200000000000,
|
|
000000200000200000200000100000100000200000000000,
|
|
400000000000400000000000400000000000000000000000,
|
|
#GOGOEND
|
|
100000100000000000100000100100100000100000000000,
|
|
300000000000000000000000200000000000200000200000,
|
|
100000100000000000100000100100100000100000000000,
|
|
300000000000000000000000100000100000100000100000,
|
|
100000000100200000200000100000000100200000200000,
|
|
100000200000100000200000100000000000200000200000,
|
|
100000000100200000200000100000000100200000200000,
|
|
100000100100100000200000100000000000000000000000,
|
|
100000100100100000100000200000000000200000000000,
|
|
100000100000200000100000500000000800000000000000,
|
|
000000200000200000200000500000000000000800000000,
|
|
400000000000400000000000400000000000000000000000,
|
|
#GOGOSTART
|
|
100000100000200000100000200000200000200000000000,
|
|
100000100000200000100000200000200000200000000000,
|
|
000000200000200000200000100000100000200000000000,
|
|
400000000000400000000000400000000000000000000000,
|
|
#GOGOEND
|
|
|
|
|
|
#END
|
|
|
|
|
|
COURSE:Normal
|
|
LEVEL:3
|
|
SCOREINIT:760
|
|
SCOREDIFF:240
|
|
|
|
|
|
#START
|
|
|
|
|
|
#GOGOSTART
|
|
100000000000100000000000200000200000200000000000,
|
|
100000000000100000000000200000200000200000000000,
|
|
000000200000200000200000100000000000100000000000,
|
|
200000000000200000000000200000000000000000000000,
|
|
#GOGOEND
|
|
100000000000100000000000200000000000200000000000,
|
|
100000000000100000000000100000000000000000000000,
|
|
100000000000100000000000200000000000200000000000,
|
|
100000000000000000000000300000000000000000000000,
|
|
100000000000100000000000200000200000200000000000,
|
|
100000000000100000000000100000000000000000000000,
|
|
000000100000100000000000100000000000100000000000,
|
|
200000000000200000000000200000000000000000000000,
|
|
#GOGOSTART
|
|
100000000000100000000000200000200000200000000000,
|
|
100000000000100000000000200000200000200000000000,
|
|
000000200000200000200000100000000000100000000000,
|
|
400000000000400000000000400000000000000000000000,
|
|
#GOGOEND
|
|
200000000000200000000000200000000000000000000000,
|
|
200000000000100000100000100000000000000000000000,
|
|
200000000000200000000000200000000000000000000000,
|
|
300000000000000000000000000000000000000000000000,
|
|
100000000000100000000000200000000000200000000000,
|
|
100000100000100000000000100000000000000000000000,
|
|
100000000000000000100000100000000000200000000000,
|
|
100000000000100000000000300000000000000000000000,
|
|
100000100000100000000000200000000000200000000000,
|
|
100000100000100000000000100000000000000000000000,
|
|
000000100000100000000000100000000000100000000000,
|
|
200000000000200000000000200000000000000000000000,
|
|
#GOGOSTART
|
|
100000000000100000000000200000200000200000000000,
|
|
100000000000100000000000200000200000200000000000,
|
|
000000200000200000200000100000000000100000000000,
|
|
400000000000400000000000400000000000000000000000,
|
|
#GOGOEND
|
|
100000000000000000000000100000000000100000100000,
|
|
100000000000000000000000000000000000000000000000,
|
|
100000000000000000000000100000000000200000200000,
|
|
200000000000000000000000000000000000000000000000,
|
|
100000000000100000000000200000000000200000000000,
|
|
100000000000100000000000100000000000000000000000,
|
|
100000000000000000100000100000000000100000000000,
|
|
100000000000100000000000300000000000000000000000,
|
|
100000000000100000000000200000000000200000000000,
|
|
100000000000000000000000500000800000000000000000,
|
|
100000000000100000000000500000800000000000000000,
|
|
200000000000200000000000200000000000000000000000,
|
|
#GOGOSTART
|
|
100000000000100000000000200000200000200000000000,
|
|
100000000000100000000000200000200000200000000000,
|
|
000000200000200000200000100000000000100000000000,
|
|
400000000000400000000000400000000000000000000000,
|
|
#GOGOEND
|
|
|
|
|
|
#END
|
|
|
|
|
|
COURSE:Easy
|
|
LEVEL:4
|
|
SCOREINIT:780
|
|
SCOREDIFF:400
|
|
|
|
|
|
#START
|
|
|
|
|
|
#GOGOSTART
|
|
100000000000000000000000200000200000200000000000,
|
|
100000000000000000000000200000200000200000000000,
|
|
100000000000000000000000100000000000000000000000,
|
|
200000000000200000000000200000000000000000000000,
|
|
#GOGOEND
|
|
100000000000000000000000100000000000000000000000,
|
|
100000000000000000000000300000000000000000000000,
|
|
100000000000000000000000100000000000000000000000,
|
|
100000000000000000000000300000000000000000000000,
|
|
100000000000100000000000100000000000000000000000,
|
|
100000000000100000000000100000000000000000000000,
|
|
100000000000000000000000100000000000000000000000,
|
|
200000000000200000000000200000000000000000000000,
|
|
#GOGOSTART
|
|
100000000000000000000000200000200000200000000000,
|
|
100000000000000000000000200000200000200000000000,
|
|
100000000000000000000000100000000000000000000000,
|
|
400000000000400000000000400000000000000000000000,
|
|
#GOGOEND
|
|
200000000000200000000000200000000000000000000000,
|
|
400000000000000000000000000000000000000000000000,
|
|
200000000000200000000000200000000000000000000000,
|
|
300000000000000000000000000000000000000000000000,
|
|
100000000000000000000000100000000000000000000000,
|
|
100000000000000000000000300000000000000000000000,
|
|
100000000000000000000000100000000000000000000000,
|
|
100000000000000000000000300000000000000000000000,
|
|
100000000000100000000000100000000000000000000000,
|
|
100000000000100000000000100000000000000000000000,
|
|
100000000000000000000000100000000000000000000000,
|
|
200000000000200000000000200000000000000000000000,
|
|
#GOGOSTART
|
|
100000000000000000000000200000200000200000000000,
|
|
100000000000000000000000200000200000200000000000,
|
|
100000000000000000000000100000000000000000000000,
|
|
400000000000400000000000400000000000000000000000,
|
|
#GOGOEND
|
|
100000000000000000000000000000000000100000100000,
|
|
100000000000000000000000000000000000000000000000,
|
|
100000000000000000000000000000000000200000200000,
|
|
200000000000000000000000000000000000000000000000,
|
|
100000000000100000000000100000000000000000000000,
|
|
100000000000000000000000300000000000000000000000,
|
|
100000000000100000000000100000000000000000000000,
|
|
100000000000000000000000300000000000000000000000,
|
|
100000000000000000000000200000000000200000000000,
|
|
100000000000000000000000500000800000000000000000,
|
|
100000000000000000000000500000800000000000000000,
|
|
200000000000200000000000200000000000000000000000,
|
|
#GOGOSTART
|
|
100000000000000000000000200000200000200000000000,
|
|
100000000000000000000000200000200000200000000000,
|
|
100000000000000000000000100000000000000000000000,
|
|
400000000000400000000000400000000000000000000000,
|
|
#GOGOEND
|
|
|
|
|
|
#END
|
|
|