285 lines
3.9 KiB
Plaintext
285 lines
3.9 KiB
Plaintext
//TJADB Project
|
|
TITLE:24karats TRIBE OF GOLD
|
|
TITLEJA:24karats TRIBE OF GOLD
|
|
SUBTITLE:--EXILE TRIBE
|
|
SUBTITLEJA:ドラマ「GTO」より
|
|
BPM:103
|
|
WAVE:24karats TRIBE OF GOLD.ogg
|
|
OFFSET:-6.020
|
|
DEMOSTART:17.700
|
|
|
|
COURSE:Oni
|
|
LEVEL:7
|
|
SCOREINIT:890
|
|
SCOREDIFF:230
|
|
|
|
|
|
#START
|
|
|
|
|
|
#SCROLL 2
|
|
1021021021221020,
|
|
1021021021221020,
|
|
1021021021221020,
|
|
1021025000000000,
|
|
000000000000000000000008000000000000000000000000,
|
|
#SCROLL 1
|
|
3000200110112000,
|
|
1000200110122010,
|
|
1000200110102000,
|
|
1110201110112020,
|
|
1000200110102000,
|
|
1000200110122010,
|
|
1000200110102000,
|
|
1021025000000000,
|
|
000000000000000000000000000000000000000008000000,
|
|
3000200110102000,
|
|
1000201202102010,
|
|
1000200110102000,
|
|
1021021022122122,
|
|
1000200110102000,
|
|
1000201202102010,
|
|
1000200110102000,
|
|
1021021022122122,
|
|
10201121,
|
|
10201121,
|
|
3002,
|
|
1021021022122122,
|
|
10201121,
|
|
10201121,
|
|
3,
|
|
600000000000000000000000000000000008000000000000,
|
|
|
|
#GOGOSTART
|
|
3010202121010120,
|
|
1010202121010210,
|
|
1010202121010120,
|
|
3003003000303030,
|
|
3010202121010120,
|
|
1010202121010210,
|
|
3000200001212020,
|
|
#SCROLL 1.2
|
|
1021021021221020,
|
|
#SCROLL 1.4
|
|
1021021021221020,
|
|
#SCROLL 1.6
|
|
1021021021221020,
|
|
#SCROLL 1.8
|
|
1021025000000000,
|
|
#SCROLL 2
|
|
000000000000000000000000000000000008000000400000,
|
|
|
|
#GOGOEND
|
|
3,
|
|
|
|
|
|
#END
|
|
|
|
|
|
COURSE:Hard
|
|
LEVEL:4
|
|
BALLOON:20,20
|
|
SCOREINIT:920
|
|
SCOREDIFF:240
|
|
|
|
|
|
#START
|
|
|
|
|
|
#SCROLL 2
|
|
1001001001001010,
|
|
1001001001001010,
|
|
1001001001001010,
|
|
9,
|
|
08,
|
|
#SCROLL 1
|
|
3000200100102000,
|
|
1000200100102000,
|
|
1000200100102000,
|
|
11211121,
|
|
1000200100102000,
|
|
1000200100102000,
|
|
1000200100102000,
|
|
1001005000000000,
|
|
000000000000000000000008000000000000000000000000,
|
|
3000200100102000,
|
|
1000200100202000,
|
|
1000200100102000,
|
|
1001001000101010,
|
|
1000200100102000,
|
|
1000200100202000,
|
|
1000200100102000,
|
|
1001001000101010,
|
|
10201120,
|
|
10201120,
|
|
3002,
|
|
1001001000101010,
|
|
10201120,
|
|
10201120,
|
|
3,
|
|
600000000000000000000000000000000008000000000000,
|
|
|
|
#GOGOSTART
|
|
3000200010101110,
|
|
1000200010102220,
|
|
1000200010101110,
|
|
3003003000303030,
|
|
3000200010101110,
|
|
1000200010102220,
|
|
3000200010101110,
|
|
#SCROLL 1.2
|
|
3003003003004040,
|
|
#SCROLL 1.4
|
|
3003003003004040,
|
|
#SCROLL 1.6
|
|
3003003003004040,
|
|
#SCROLL 1.8
|
|
9,
|
|
#SCROLL 2
|
|
08,
|
|
|
|
#GOGOEND
|
|
3,
|
|
|
|
|
|
#END
|
|
|
|
|
|
COURSE:Normal
|
|
LEVEL:4
|
|
BALLOON:14,5,5,5,5,14
|
|
SCOREINIT:1240
|
|
SCOREDIFF:320
|
|
|
|
|
|
#START
|
|
|
|
|
|
#SCROLL 2
|
|
100000000100000000500000000000000008000000000000,
|
|
100000000100000000500000000000000008000000000000,
|
|
100000000100000000500000000000000008000000000000,
|
|
9,
|
|
08,
|
|
#SCROLL 1
|
|
1202,
|
|
1202,
|
|
1202,
|
|
11102220,
|
|
1202,
|
|
1202,
|
|
1202,
|
|
1001005000000000,
|
|
000000000000000000000008000000000000000000000000,
|
|
10200110,
|
|
10200110,
|
|
10200110,
|
|
1001007000008000,
|
|
10200110,
|
|
10200110,
|
|
10200110,
|
|
1001007000008000,
|
|
10101110,
|
|
10101110,
|
|
3002,
|
|
1001007000008000,
|
|
10101110,
|
|
10101110,
|
|
3,
|
|
600000000000000000000000000008000000000000000000,
|
|
|
|
#GOGOSTART
|
|
30201110,
|
|
10201110,
|
|
10201110,
|
|
30303330,
|
|
30201110,
|
|
10201110,
|
|
10201110,
|
|
#SCROLL 1.2
|
|
100000000100000000500000000000000008000000000000,
|
|
#SCROLL 1.4
|
|
100000000100000000500000000000000008000000000000,
|
|
#SCROLL 1.6
|
|
1001007000008000,
|
|
#SCROLL 1.8
|
|
9,
|
|
#SCROLL 2
|
|
08,
|
|
|
|
#GOGOEND
|
|
3,
|
|
|
|
|
|
#END
|
|
|
|
|
|
COURSE:Easy
|
|
LEVEL:3
|
|
BALLOON:8,5,5,5,5,8
|
|
SCOREINIT:1230
|
|
SCOREDIFF:410
|
|
|
|
|
|
#START
|
|
|
|
|
|
#SCROLL 2
|
|
500000000000000000000000000000000000008000000000,
|
|
500000000000000000000000000000000000008000000000,
|
|
500000000000000000000000000000000000008000000000,
|
|
9,
|
|
08,
|
|
#SCROLL 1
|
|
1200,
|
|
1200,
|
|
1200,
|
|
10101110,
|
|
1200,
|
|
1200,
|
|
1200,
|
|
5,
|
|
000000000000000000000008000000000000000000000000,
|
|
1201,
|
|
1201,
|
|
1201,
|
|
7008,
|
|
1201,
|
|
1201,
|
|
1201,
|
|
7008,
|
|
1111,
|
|
1110,
|
|
3002,
|
|
7008,
|
|
1111,
|
|
1110,
|
|
3,
|
|
600000000000000000000000000008000000000000000000,
|
|
|
|
#GOGOSTART
|
|
3011,
|
|
1011,
|
|
1011,
|
|
3333,
|
|
3011,
|
|
1011,
|
|
1011,
|
|
#SCROLL 1.2
|
|
500000000000000000000000000000000008000000000000,
|
|
#SCROLL 1.4
|
|
500000000000000000000000000000000008000000000000,
|
|
#SCROLL 1.6
|
|
7008,
|
|
#SCROLL 1.8
|
|
9,
|
|
#SCROLL 2
|
|
08,
|
|
|
|
#GOGOEND
|
|
3,
|
|
|
|
|
|
#END
|
|
|