565 lines
14 KiB
Plaintext
565 lines
14 KiB
Plaintext
//TJADB Project
|
|
TITLE:Agent J
|
|
TITLEJA:特務J
|
|
SUBTITLE:--Jolin Tsai
|
|
BPM:143
|
|
WAVE:Agent J.ogg
|
|
OFFSET:-3.460
|
|
DEMOSTART:50.435
|
|
|
|
COURSE:Oni
|
|
LEVEL:6
|
|
BALLOON:25
|
|
SCOREINIT:560
|
|
SCOREDIFF:140
|
|
|
|
|
|
#START
|
|
|
|
|
|
100000000000200000100000000000000000200000000000,
|
|
100000000000200000100000000000000000200000000000,
|
|
100000000000200000100000000000000000200000000000,
|
|
100000000000200000100000000000200000200000200000,
|
|
000000000000000000000000000000000000000000000000,
|
|
100000000000200000100000000000200200100000200000,
|
|
100000000000200000100000000000200200100000200000,
|
|
100000000000200000100000000000200200100000200000,
|
|
100000100000200000200000100000200000100000200000,
|
|
000000000000200000100000400000000000400000000000,
|
|
100000000000200000100000200000000000200000200000,
|
|
100000000000200000100000000000200200100000200000,
|
|
100000000000200000100000000000200200100000200000,
|
|
100000000000200000100000000000200200100000200000,
|
|
100000100000200000200000100000200000100000200000,
|
|
000000000000000000000000200000200000100000200000,
|
|
100000000000200000100000000000000000200000000000,
|
|
100000000000200000100000000000000000200000000000,
|
|
100000000000200000100000100000200200100000200000,
|
|
100000000000200000100000100000200200100000200000,
|
|
100000000000200000100000100000200200100000200000,
|
|
100000100000200000100000100000200200100000000000,
|
|
100000000000200000100000100000200200100000200000,
|
|
100000000000200000100000100000200200100000200000,
|
|
100000000000200000100000100000200200100000200000,
|
|
100000100000200000100000100000200200100000200000,
|
|
7,
|
|
08,
|
|
|
|
#GOGOSTART
|
|
100000000000200000100000100000200200100000200000,
|
|
100000100000200000200000100000200200100000200000,
|
|
100000200200100000200000100000200200100000200000,
|
|
300000000000400000000000300000000000400000000000,
|
|
100000000000200000100000100000200200100000200000,
|
|
100000100000200000200000100000200200100000200000,
|
|
100000200200100000200000100000200200100000200000,
|
|
100000100000200000200000300000000000400000000000,
|
|
|
|
#GOGOEND
|
|
300000000000200000100000100000200200200000200000,
|
|
100000000000200000100000100000200200200000200000,
|
|
100000000000200000100000100000200200200000200000,
|
|
100000200000100000200000100000200000100000000000,
|
|
100000000000200000100000200000200200200000200000,
|
|
100000000000200000100000200000200200200000200000,
|
|
100000000000200000100000200000200200200000200000,
|
|
100000100000200000100000100000200000100000200000,
|
|
300000000000200000100000000000000000200000000000,
|
|
100000000000200000100000000000100000200000000000,
|
|
100000000000200000100000000000000000200000000000,
|
|
100000000000200000100000000000100000200000000000,
|
|
100000000000200200100000000000100000200000100000,
|
|
100000000000200200100000000000100000200000000000,
|
|
100000000000200200100000000000100000200000100000,
|
|
100000000000200000100000000000000000400000000000,
|
|
|
|
#GOGOSTART
|
|
100000000000200000100000100000200200100000200000,
|
|
100000000000200000100000100000200200100000200000,
|
|
100000200200100000200000100000200200100000200000,
|
|
100000000000200000100000100000200200100000000000,
|
|
100000000000200000100000100000200200100000200000,
|
|
100000000000200000100000100000200200100000200000,
|
|
100000000000200000100000100000200200100000200000,
|
|
100000100000200000100000200000100100200000000000,
|
|
100000000000200000100000100000200200100000200000,
|
|
100000000000200000100000100000200200100000200000,
|
|
100000200200100000200000100000200200100000200000,
|
|
100000000000200000100000100000200200100000000000,
|
|
100000000000200000100000100000200200100000200000,
|
|
100000000000200000100000100000200200100000200000,
|
|
100000000000200000100000100000200200100000200000,
|
|
300000300000400000400000300000000000400000000000,
|
|
|
|
#GOGOEND
|
|
300000000000000000000000000000000000000000000000,
|
|
|
|
|
|
#END
|
|
|
|
|
|
COURSE:Hard
|
|
LEVEL:5
|
|
BALLOON:20,20,20,13,12,12,13,12,12,13,12,12
|
|
|
|
|
|
#START
|
|
|
|
|
|
10200220,
|
|
10200220,
|
|
10200220,
|
|
10200222,
|
|
00000222,
|
|
|
|
#SECTION
|
|
#BRANCHSTART p,75,90
|
|
#N
|
|
10210120,
|
|
10210120,
|
|
10210120,
|
|
10202220,
|
|
1022,
|
|
10210120,
|
|
|
|
#E
|
|
10210120,
|
|
10210120,
|
|
10210120,
|
|
10201220,
|
|
10212020,
|
|
10210120,
|
|
|
|
#M
|
|
10210122,
|
|
10210122,
|
|
10210122,
|
|
10201222,
|
|
10212020,
|
|
10210122,
|
|
|
|
#SECTION
|
|
#BRANCHSTART p,75,90
|
|
#N
|
|
10210120,
|
|
10210120,
|
|
10210120,
|
|
10202220,
|
|
1222,
|
|
10210020,
|
|
1022,
|
|
|
|
#E
|
|
10210120,
|
|
10210120,
|
|
10210120,
|
|
10201220,
|
|
10212020,
|
|
10210020,
|
|
1122,
|
|
|
|
#M
|
|
10210122,
|
|
10210122,
|
|
10210122,
|
|
10201222,
|
|
10212020,
|
|
10211020,
|
|
1122,
|
|
|
|
#SECTION
|
|
#BRANCHSTART p,75,90
|
|
#N
|
|
10001120,
|
|
1212,
|
|
10201120,
|
|
1212,
|
|
|
|
#E
|
|
10201120,
|
|
10201120,
|
|
10201120,
|
|
1212,
|
|
|
|
#M
|
|
10201122,
|
|
10201122,
|
|
10201122,
|
|
10201120,
|
|
|
|
#SECTION
|
|
#BRANCHSTART p,75,90
|
|
#N
|
|
10001120,
|
|
1212,
|
|
10201120,
|
|
10201120,
|
|
|
|
#E
|
|
10201120,
|
|
10201120,
|
|
10201120,
|
|
10201122,
|
|
|
|
#M
|
|
10201122,
|
|
10201122,
|
|
10201122,
|
|
10201122,
|
|
|
|
#SECTION
|
|
#BRANCHSTART p,75,90
|
|
#N
|
|
7,
|
|
08,
|
|
#GOGOSTART
|
|
10201120,
|
|
10201120,
|
|
1021112,
|
|
3344,
|
|
10201120,
|
|
10201120,
|
|
10211120,
|
|
11103030,
|
|
#GOGOEND
|
|
30002120,
|
|
10202120,
|
|
10002120,
|
|
10211000,
|
|
|
|
#E
|
|
7,
|
|
08,
|
|
#GOGOSTART
|
|
10211120,
|
|
10221120,
|
|
1000201011102000,
|
|
3344,
|
|
10211120,
|
|
10221120,
|
|
1000201011102000,
|
|
11103030,
|
|
#GOGOEND
|
|
30202120,
|
|
10202120,
|
|
10202120,
|
|
10211000,
|
|
|
|
#M
|
|
7,
|
|
08,
|
|
#GOGOSTART
|
|
1000201011102000,
|
|
1000202011102000,
|
|
1000201011102000,
|
|
3344,
|
|
1000201011102000,
|
|
1000202011102000,
|
|
1000201011102000,
|
|
11113030,
|
|
#GOGOEND
|
|
30202120,
|
|
10202120,
|
|
10202120,
|
|
10211000,
|
|
|
|
#SECTION
|
|
#BRANCHSTART p,75,90
|
|
#N
|
|
10002120,
|
|
10202120,
|
|
10002120,
|
|
10211000,
|
|
|
|
#E
|
|
10202120,
|
|
10202120,
|
|
10202120,
|
|
10211000,
|
|
|
|
#M
|
|
10202120,
|
|
10202120,
|
|
10202120,
|
|
11211000,
|
|
|
|
#SECTION
|
|
#BRANCHSTART p,75,90
|
|
#N
|
|
12,
|
|
7008,
|
|
12,
|
|
7008,
|
|
10012000,
|
|
7008,
|
|
10012000,
|
|
500000000000000000000000000000000008000000000000,
|
|
|
|
#E
|
|
10210020,
|
|
7008,
|
|
10210020,
|
|
7008,
|
|
10210120,
|
|
7008,
|
|
10210120,
|
|
500000000000000000000000000000000008000000000000,
|
|
|
|
#M
|
|
10210020,
|
|
7008,
|
|
10210020,
|
|
7008,
|
|
10210120,
|
|
7008,
|
|
10210120,
|
|
500000000000000000000000000000000008000000000000,
|
|
|
|
#GOGOSTART
|
|
#SECTION
|
|
#BRANCHSTART p,75,90
|
|
#N
|
|
10211020,
|
|
10221020,
|
|
10211120,
|
|
3344,
|
|
10211020,
|
|
10221020,
|
|
10211120,
|
|
10111040,
|
|
|
|
#E
|
|
10211120,
|
|
10221120,
|
|
1000201011102000,
|
|
3344,
|
|
10211120,
|
|
10221120,
|
|
1000201011102000,
|
|
10111040,
|
|
|
|
#M
|
|
1000201011102000,
|
|
1000202011102000,
|
|
1000201011102000,
|
|
3344,
|
|
1000201011102000,
|
|
1000202011102000,
|
|
1000201011102000,
|
|
10111040,
|
|
|
|
#SECTION
|
|
#BRANCHSTART p,75,90
|
|
#N
|
|
10211021,
|
|
10221020,
|
|
10211120,
|
|
3344,
|
|
10211020,
|
|
10221020,
|
|
10211120,
|
|
11113030,
|
|
#GOGOEND
|
|
3,
|
|
|
|
#E
|
|
10211121,
|
|
10221120,
|
|
1000201011102000,
|
|
3344,
|
|
10211120,
|
|
10221120,
|
|
1000201011102000,
|
|
11113030,
|
|
#GOGOEND
|
|
3,
|
|
|
|
#M
|
|
1000201011102010,
|
|
1000202011102000,
|
|
1000201011102000,
|
|
3344,
|
|
1000201011102000,
|
|
1000202011102000,
|
|
1000201011102000,
|
|
11113030,
|
|
#GOGOEND
|
|
3,
|
|
|
|
#BRANCHEND
|
|
|
|
|
|
#END
|
|
|
|
|
|
COURSE:Normal
|
|
LEVEL:4
|
|
|
|
|
|
#START
|
|
|
|
|
|
100000000000000000000000200000000000000000000000,
|
|
100000000000000000000000200000000000000000000000,
|
|
100000000000000000000000200000000000000000000000,
|
|
100000000000000000000000200000000000000000000000,
|
|
000000000000000000000000000000000000000000000000,
|
|
100000000000100000100000000000000000000000000000,
|
|
100000000000000000000000100000000000200000000000,
|
|
100000000000100000100000000000000000000000000000,
|
|
100000000000100000000000100000100000100000000000,
|
|
100000000000000000000000000000000000000000000000,
|
|
000000000000000000000000000000000000000000000000,
|
|
100000000000100000100000000000000000000000000000,
|
|
100000000000000000000000100000000000200000000000,
|
|
100000000000100000100000000000000000000000000000,
|
|
100000000000100000000000100000100000100000000000,
|
|
100000000000000000000000000000000000000000000000,
|
|
100000000000000000000000200000000000000000000000,
|
|
200000000000000000000000100000000000000000000000,
|
|
000000000000100000000000200000000000200000000000,
|
|
100000000000000000000000200000000000000000000000,
|
|
000000000000100000100000100000000000100000000000,
|
|
000000000000200000200000200000000000200000000000,
|
|
000000000000100000000000200000000000200000000000,
|
|
100000000000000000000000200000000000000000000000,
|
|
000000000000100000100000100000000000100000000000,
|
|
000000000000200000200000200000000000200000000000,
|
|
000000000000000000000000000000000000000000000000,
|
|
000000000000000000000000000000000000000000000000,
|
|
#GOGOSTART
|
|
100000000000100000100000100000000000000000000000,
|
|
100000000000100000100000100000000000100000000000,
|
|
000000000000100000000000100000100000100000000000,
|
|
200000000000200000000000200000000000000000000000,
|
|
100000000000100000100000100000000000000000000000,
|
|
100000000000100000100000100000000000000000000000,
|
|
000000000000100000000000100000100000100000000000,
|
|
100000000000100000000000300000000000300000000000,
|
|
#GOGOEND
|
|
300000000000000000000000100000000000000000000000,
|
|
000000000000100000000000200000000000200000000000,
|
|
100000000000100000000000100000000000000000000000,
|
|
100000000000100000100000100000000000000000000000,
|
|
100000000000000000000000100000000000000000000000,
|
|
000000000000100000000000200000000000200000000000,
|
|
100000000000100000000000100000000000000000000000,
|
|
100000000000100000100000100000000000000000000000,
|
|
100000000000000000000000200000000000000000000000,
|
|
200000000000000000000000100000000000000000000000,
|
|
100000000000000000000000200000000000000000000000,
|
|
200000000000000000000000100000000000000000000000,
|
|
100000000000000000100000000000000000200000000000,
|
|
100000000000000000100000000000000000000000000000,
|
|
100000000000000000100000000000000000200000000000,
|
|
500000000000000000000080000000000000000000000000,
|
|
#GOGOSTART
|
|
100000000000100000100000100000000000000000000000,
|
|
100000000000100000100000100000000000000000000000,
|
|
100000000000100000000000100000100000100000000000,
|
|
200000000000200000000000200000000000000000000000,
|
|
100000000000100000100000100000000000000000000000,
|
|
100000000000100000100000100000000000000000000000,
|
|
100000000000100000000000100000100000100000000000,
|
|
200000000000200000200000200000000000000000000000,
|
|
100000000000100000100000100000000000000000000000,
|
|
100000000000100000100000100000000000000000000000,
|
|
100000000000100000000000100000100000100000000000,
|
|
200000000000200000000000200000000000000000000000,
|
|
100000000000100000100000100000000000000000000000,
|
|
100000000000100000100000100000000000000000000000,
|
|
100000000000100000000000100000100000100000000000,
|
|
100000000000100000000000300000000000300000000000,
|
|
#GOGOEND
|
|
300000000000000000000000000000000000000000000000,
|
|
|
|
|
|
#END
|
|
|
|
|
|
COURSE:Easy
|
|
LEVEL:4
|
|
|
|
|
|
#START
|
|
|
|
|
|
100000000000000000000000000000000000000000000000,
|
|
200000000000000000000000000000000000000000000000,
|
|
100000000000000000000000000000000000000000000000,
|
|
200000000000000000000000000000000000000000000000,
|
|
000000000000000000000000000000000000000000000000,
|
|
100000000000100000000000000000000000000000000000,
|
|
100000000000000000000000100000000000000000000000,
|
|
100000000000100000000000000000000000000000000000,
|
|
100000000000000000000000100000000000100000000000,
|
|
100000000000000000000000000000000000000000000000,
|
|
100000000000000000000000100000000000000000000000,
|
|
100000000000100000000000000000000000000000000000,
|
|
100000000000000000000000100000000000000000000000,
|
|
100000000000100000000000000000000000000000000000,
|
|
100000000000000000000000100000000000100000000000,
|
|
100000000000000000000000000000000000000000000000,
|
|
100000000000000000000000000000000000000000000000,
|
|
200000000000000000000000000000000000000000000000,
|
|
100000000000000000000000100000000000000000000000,
|
|
100000000000000000000000100000000000100000000000,
|
|
100000000000000000000000100000000000000000000000,
|
|
100000000000000000000000100000000000100000000000,
|
|
100000000000000000000000100000000000000000000000,
|
|
100000000000000000000000100000000000100000000000,
|
|
100000000000000000000000100000000000000000000000,
|
|
100000000000000000000000100000000000100000000000,
|
|
100000000000000000000000000000000000000000000000,
|
|
200000000000000000000000000000000000000000000000,
|
|
#GOGOSTART
|
|
100000000000100000000000100000000000000000000000,
|
|
100000000000200000000000100000000000000000000000,
|
|
100000000000000000000000100000000000000000000000,
|
|
300000000000300000000000300000000000000000000000,
|
|
100000000000100000000000100000000000000000000000,
|
|
100000000000200000000000100000000000000000000000,
|
|
100000000000000000000000100000000000000000000000,
|
|
100000000000100000000000100000000000000000000000,
|
|
#GOGOEND
|
|
300000000000000000000000100000000000000000000000,
|
|
100000000000000000000000000000000000000000000000,
|
|
100000000000000000000000100000000000000000000000,
|
|
100000000000000000000000000000000000000000000000,
|
|
100000000000000000000000100000000000000000000000,
|
|
100000000000000000000000000000000000000000000000,
|
|
100000000000000000000000100000000000000000000000,
|
|
100000000000000000000000000000000000000000000000,
|
|
100000000000000000000000000000000000000000000000,
|
|
200000000000000000000000000000000000000000000000,
|
|
100000000000000000000000000000000000000000000000,
|
|
200000000000000000000000000000000000000000000000,
|
|
100000000000000000000000000000000000000000000000,
|
|
200000000000000000000000000000000000000000000000,
|
|
100000000000000000000000000000000000000000000000,
|
|
500000000000000000000080000000000000000000000000,
|
|
#GOGOSTART
|
|
100000000000100000000000100000000000000000000000,
|
|
100000000000200000000000100000000000000000000000,
|
|
100000000000000000000000100000000000000000000000,
|
|
400000000000400000000000400000000000000000000000,
|
|
100000000000100000000000100000000000000000000000,
|
|
100000000000200000000000100000000000000000000000,
|
|
100000000000000000000000100000000000100000000000,
|
|
300000000000000000000000000000000000000000000000,
|
|
100000000000100000000000100000000000000000000000,
|
|
100000000000200000000000100000000000000000000000,
|
|
100000000000000000000000100000000000000000000000,
|
|
400000000000400000000000400000000000000000000000,
|
|
100000000000100000000000100000000000000000000000,
|
|
100000000000200000000000100000000000000000000000,
|
|
100000000000000000000000100000000000000000000000,
|
|
100000000000100000000000100000000000100000000000,
|
|
#GOGOEND
|
|
300000000000000000000000000000000000000000000000,
|
|
|
|
|
|
#END
|
|
|