281 lines
11 KiB
Plaintext
281 lines
11 KiB
Plaintext
//TJADB Project
|
|
TITLE:Asia no Junshin
|
|
TITLEJA:アジアの純真
|
|
SUBTITLE:--PUFFY/Naturally Raised
|
|
BPM:126
|
|
WAVE:Asia no Junshin.ogg
|
|
OFFSET:-11.018
|
|
DEMOSTART:26.256
|
|
|
|
COURSE:Oni
|
|
LEVEL:6
|
|
SCOREINIT:790
|
|
SCOREDIFF:180
|
|
|
|
|
|
#START
|
|
|
|
|
|
100000000000200000000000100000200000000000200000,
|
|
100000000000200000000000100000200000000000200000,
|
|
100000000000200000000000100000200000000000200000,
|
|
100000000000200000000000100000100000200000200200,
|
|
100000000000200000000000100000200000000000200200,
|
|
100000000000200000000000100000200000000000200200,
|
|
100000000000200000000000100000200000000000200200,
|
|
100000000000200000000000100000100000200000200200,
|
|
100000200000200000000000100000200200200000200000,
|
|
100000000000200000000000100000200200200000200000,
|
|
100000100000200000100000100000200200200000200000,
|
|
100000100100200000100000000000200000100000200200,
|
|
100000100000200000000000100000100100200000200000,
|
|
100000100000200000100000100000100100200000100000,
|
|
100000000000200000100000200000100200200000000000,
|
|
100000000000200000100000200000100100200000000000,
|
|
100000000000200000100000200000100200200000000000,
|
|
100000000000200000000000100000100100200000200200,
|
|
100000200000200000000000100000200200200000200000,
|
|
100000000000200000000000100000200200200000200000,
|
|
100000100000200000100000100000200200200000200000,
|
|
100000100100200000100000000000200000100000200200,
|
|
100000100000200000000000100000100100200000200000,
|
|
100000100000200000100000100000100100200000000000,
|
|
100000100000200000100000200000100200200000200000,
|
|
100000100000200000100000200000100100200000200000,
|
|
100000100000200000100000200000100200200000200000,
|
|
100000100000200000100000200000100100200200200200,
|
|
100000000000200000200000100000100100200000200000,
|
|
100000000000200000100000200000200200100000200000,
|
|
100000100000200000100000200000200000100000100100,
|
|
100000000000200000100000000000100000200000000000,
|
|
100000000000100000200000000000100000200000000000,
|
|
100000000000200000100000000000200000100000100000,
|
|
300000000000000000000000500000000000000008000000,
|
|
300000000000200000000000300000000000000000000000,
|
|
100000100100200000100000100000100100200000100000,
|
|
100000100100200000100000100100200200100100200200,
|
|
|
|
#GOGOSTART
|
|
100000100100200000200200100000100100200000100000,
|
|
100000100100200000100100100000100100200000000000,
|
|
100000100100200000200200100000100100200000100000,
|
|
100000100100200000100100200000200200200000000000,
|
|
100000100100200000200200100000100100200000100000,
|
|
100000100100200000100100100000100100200000200000,
|
|
100000100200200000100000100000200200100000100000,
|
|
100000100200200000100000100000200200100000200000,
|
|
100000000000200000000000100000100000200000000000,
|
|
100000000000200000000000100000100000200000000000,
|
|
100000000000200000000000100000000000200000000000,
|
|
500000000000000000000000000000000000000008000000,
|
|
|
|
#GOGOEND
|
|
|
|
|
|
#END
|
|
|
|
|
|
COURSE:Hard
|
|
LEVEL:4
|
|
SCOREINIT:1020
|
|
SCOREDIFF:270
|
|
|
|
|
|
#START
|
|
|
|
|
|
100000000000200000000000000000000000000000000000,
|
|
100000000000200000000000000000000000000000000000,
|
|
100000000000200000000000000000000000000000000000,
|
|
100000000000200000000000000000000000000000000000,
|
|
100000000000200000000000000000000000200000000000,
|
|
100000000000200000000000000000000000200000000000,
|
|
100000000000200000000000000000000000200000000000,
|
|
100000000000200000000000000000000000200000000000,
|
|
100000000000200000000000100000000000200000000000,
|
|
100000000000200000000000100000100000200000000000,
|
|
100000000000200000000000100000000000200000000000,
|
|
100000000000200000100000000000200000000000000000,
|
|
100000000000200000000000100000000000200000000000,
|
|
100000100000200000200000100000100000200000000000,
|
|
100000000000000000000000200000000000000000000000,
|
|
100000000000200000000000200000200000200000000000,
|
|
100000000000200000000000200000000000200000000000,
|
|
100000000000200000000000200000000000000000000000,
|
|
100000000000200000000000100000100000200000000000,
|
|
100000000000200000000000100000100000200000000000,
|
|
100000000000200000000000100000000000200000000000,
|
|
100000000000200000100000000000200000000000000000,
|
|
100000000000200000000000100000000000200000000000,
|
|
100000100000200000200000100000100000200000000000,
|
|
100000000000200000000000200000200000200000000000,
|
|
100000000000200000000000200000200000200000000000,
|
|
100000000000200000000000200000200000200000000000,
|
|
100000000000200000000000200000000000000000000000,
|
|
100000000000200000000000100000000000200000000000,
|
|
100000000000200000100000000000100000200000000000,
|
|
000000000000200000000000200000000000200000000000,
|
|
100000000000200000100000000000100000200000000000,
|
|
100000000000200000200000000000200000200000000000,
|
|
100000000000200000100000000000200000100000000000,
|
|
300000000000000000000000000000000000000000000000,
|
|
300000000000000000000000300000000000000000000000,
|
|
100000100100100000000000100000100100100000000000,
|
|
100000100100100000100100100000100100100000000000,
|
|
|
|
#GOGOSTART
|
|
000000000000100000000000200000000000200000000000,
|
|
100000100100100000000000200000000000200000000000,
|
|
100000100100100000000000100000100100100000000000,
|
|
100000100000100000000000100000000000000000000000,
|
|
000000000000100000000000200000000000200000000000,
|
|
100000100100100000000000200000000000200000000000,
|
|
100000100100100000000000100000100100100000000000,
|
|
100000200000100000000000200000000000000000000000,
|
|
100000000000200000000000100000100000200000000000,
|
|
100000000000200000000000100000100000200000000000,
|
|
100000000000200000000000100000000000000000000000,
|
|
500000000000000000000000000000000000000008000000,
|
|
|
|
#GOGOEND
|
|
|
|
|
|
#END
|
|
|
|
|
|
COURSE:Normal
|
|
LEVEL:3
|
|
SCOREINIT:1030
|
|
SCOREDIFF:330
|
|
|
|
|
|
#START
|
|
|
|
|
|
100000000000000000000000000000000000000000000000,
|
|
100000000000000000000000000000000000000000000000,
|
|
100000000000000000000000000000000000000000000000,
|
|
100000000000000000000000000000000000000000000000,
|
|
100000000000200000000000000000000000200000000000,
|
|
100000000000200000000000000000000000200000000000,
|
|
100000000000200000000000000000000000200000000000,
|
|
100000000000200000000000000000000000200000000000,
|
|
100000000000200000000000100000000000000000000000,
|
|
100000000000200000000000100000000000000000000000,
|
|
100000000000200000000000100000000000200000000000,
|
|
100000000000200000000000000000200000000000000000,
|
|
100000000000000000000000200000000000000000000000,
|
|
100000000000100000000000200000000000200000000000,
|
|
100000000000000000000000200000200000200000000000,
|
|
100000000000000000000000200000000000000000000000,
|
|
100000000000000000000000200000200000200000000000,
|
|
100000000000000000000000200000000000000000000000,
|
|
100000000000200000000000100000000000000000000000,
|
|
100000000000200000000000100000000000000000000000,
|
|
100000000000200000000000100000000000200000000000,
|
|
100000000000200000000000000000200000000000000000,
|
|
100000000000200000000000100000000000000000000000,
|
|
100000000000200000000000100000000000200000000000,
|
|
100000000000000000000000200000200000200000000000,
|
|
100000000000000000000000200000200000200000000000,
|
|
100000000000000000000000200000200000200000000000,
|
|
100000000000200000000000200000000000000000000000,
|
|
100000000000200000000000100000000000200000000000,
|
|
100000000000000000100000000000000000000000000000,
|
|
000000000000200000000000200000000000200000000000,
|
|
100000000000000000000000200000000000000000000000,
|
|
100000000000200000000000000000000000200000000000,
|
|
000000000000000000000000000000000000100000000000,
|
|
300000000000000000000000000000000000000000000000,
|
|
300000000000000000000000300000000000000000000000,
|
|
100000000000200000000000100000000000200000000000,
|
|
100000000000200000000000100000000000200000000000,
|
|
|
|
#GOGOSTART
|
|
000000000000300000000000200000000000200000000000,
|
|
100000000000000000000000100000000000000000000000,
|
|
100000100000100000000000000000100000000000100000,
|
|
100000000000200000000000200000000000000000000000,
|
|
000000000000300000000000200000000000200000000000,
|
|
100000000000000000000000100000000000000000000000,
|
|
100000100000100000000000000000100000000000100000,
|
|
100000000000200000000000200000000000000000000000,
|
|
100000000000200000000000100000000000200000000000,
|
|
100000000000000000000000000000000000100000000000,
|
|
100000000000200000000000100000000000000000000000,
|
|
500000000000000000000000000000000000000008000000,
|
|
|
|
#GOGOEND
|
|
|
|
|
|
#END
|
|
|
|
|
|
COURSE:Easy
|
|
LEVEL:3
|
|
SCOREINIT:820
|
|
SCOREDIFF:290
|
|
|
|
|
|
#START
|
|
|
|
|
|
100000000000000000000000000000000000000000000000,
|
|
100000000000000000000000000000000000000000000000,
|
|
100000000000000000000000000000000000000000000000,
|
|
100000000000000000000000000000000000000000000000,
|
|
100000000000200000000000000000000000000000000000,
|
|
100000000000200000000000000000000000000000000000,
|
|
100000000000200000000000000000000000000000000000,
|
|
100000000000200000000000000000000000000000000000,
|
|
100000000000000000000000200000000000000000000000,
|
|
100000000000000000000000200000000000000000000000,
|
|
100000000000100000000000100000000000000000000000,
|
|
100000000000000000000000100000000000000000000000,
|
|
100000000000000000000000200000000000000000000000,
|
|
100000000000100000000000100000000000100000000000,
|
|
100000000000000000000000200000000000000000000000,
|
|
100000000000000000000000200000000000200000000000,
|
|
100000000000000000000000200000000000200000000000,
|
|
100000000000200000000000200000000000000000000000,
|
|
100000000000000000000000200000000000000000000000,
|
|
100000000000100000000000200000000000000000000000,
|
|
100000000000100000000000100000000000000000000000,
|
|
100000000000100000000000100000000000000000000000,
|
|
100000000000200000000000100000000000000000000000,
|
|
100000000000200000000000100000000000200000000000,
|
|
100000000000000000000000200000200000200000000000,
|
|
000000000000000000000000200000200000200000000000,
|
|
000000000000000000000000200000200000200000000000,
|
|
000000000000000000000000200000000000000000000000,
|
|
100000000000200000000000100000000000000000000000,
|
|
100000000000000000000000100000000000000000000000,
|
|
000000000000200000000000200000000000200000000000,
|
|
100000000000000000000000200000000000000000000000,
|
|
100000000000200000000000100000000000000000000000,
|
|
200000000000000000000000000000000000000000000000,
|
|
300000000000000000000000000000000000000000000000,
|
|
300000000000000000000000300000000000000000000000,
|
|
100000000000200000000000100000000000200000000000,
|
|
100000000000200000000000100000000000200000000000,
|
|
|
|
#GOGOSTART
|
|
000000000000200000000000200000000000200000000000,
|
|
100000000000000000000000100000000000000000000000,
|
|
100000100000100000000000000000000000000000000000,
|
|
100000000000000000000000200000000000000000000000,
|
|
000000000000200000000000200000000000200000000000,
|
|
100000000000000000000000100000000000000000000000,
|
|
100000100000100000000000000000000000200000000000,
|
|
200000000000200000000000200000000000000000000000,
|
|
100000000000200000000000100000000000000000000000,
|
|
100000000000200000000000100000000000000000000000,
|
|
100000000000200000000000100000000000000000000000,
|
|
500000000000000000000000000000000000000008000000,
|
|
|
|
#GOGOEND
|
|
|
|
|
|
#END
|
|
|