194 lines
4.3 KiB
Plaintext
194 lines
4.3 KiB
Plaintext
//TJADB Project
|
|
TITLE:Ayumi
|
|
TITLEJA:歩み
|
|
SUBTITLE:--GReeeeN/U-CAN & Oyasumi Tenki
|
|
BPM:90
|
|
WAVE:Ayumi.ogg
|
|
OFFSET:-5.438
|
|
DEMOSTART:58.410
|
|
|
|
COURSE:Oni
|
|
LEVEL:3
|
|
BALLOON:15
|
|
SCOREINIT:1090
|
|
SCOREDIFF:290
|
|
|
|
|
|
#START
|
|
|
|
|
|
1001201000102101,
|
|
1001201000102011,
|
|
1001201001102101,
|
|
1001201000002020,
|
|
1001201000112001,
|
|
1001201010102000,
|
|
1001201010112001,
|
|
1001201010112000,
|
|
1001201000112001,
|
|
1001201011112000,
|
|
1001201010112010,
|
|
10210011,
|
|
1011022010001020,
|
|
1022011020001010,
|
|
1022011020002020,
|
|
11212011,
|
|
1011022010001010,
|
|
1022011020001010,
|
|
1011002010102010,
|
|
7008,
|
|
|
|
#GOGOSTART
|
|
1010201110104000,
|
|
4030403040002011,
|
|
1010201110102010,
|
|
1022102010000000,
|
|
1010201110104000,
|
|
4030403040002011,
|
|
1010201110102010,
|
|
100000200200100000200000500000000000000008000000,
|
|
|
|
#GOGOEND
|
|
|
|
|
|
#END
|
|
|
|
|
|
COURSE:Hard
|
|
LEVEL:5
|
|
SCOREINIT:1430
|
|
SCOREDIFF:420
|
|
|
|
|
|
#START
|
|
|
|
|
|
1001201000102000,
|
|
1001201000102000,
|
|
1001201000102000,
|
|
1001201000000000,
|
|
11201120,
|
|
11211120,
|
|
11201120,
|
|
11211120,
|
|
11201120,
|
|
11211120,
|
|
11201121,
|
|
500000000000000000000000000008000000000000000000,
|
|
10210120,
|
|
10211020,
|
|
10210120,
|
|
11221000,
|
|
10210120,
|
|
10211020,
|
|
10210120,
|
|
1110,
|
|
|
|
#GOGOSTART
|
|
1010201110002010,
|
|
1010201110002000,
|
|
1010201110002010,
|
|
12121000,
|
|
1010201110002010,
|
|
1010201110002000,
|
|
1010201110001010,
|
|
200000200000100000200000500000000000000008000000,
|
|
|
|
#GOGOEND
|
|
|
|
|
|
#END
|
|
|
|
|
|
COURSE:Normal
|
|
LEVEL:4
|
|
SCOREINIT:1470
|
|
SCOREDIFF:530
|
|
|
|
|
|
#START
|
|
|
|
|
|
100000000000000000100000000000000000200000000000,
|
|
100000000000000000100000000000000000000000000000,
|
|
100000000000000000100000000000000000200000000000,
|
|
100000000000000000100000000000000000000000000000,
|
|
100000100000100000000000100000000000200000000000,
|
|
100000100000100000000000100000000000000000000000,
|
|
100000100000100000000000100000000000200000000000,
|
|
100000100000100000000000100000000000000000000000,
|
|
100000100000100000000000200000200000200000000000,
|
|
100000000000200000000000100000000000200000000000,
|
|
100000000000000000000000100000000000200000000000,
|
|
500000000000000000000008000000000000000000000000,
|
|
100000000000100000100000100000000000200000000000,
|
|
100000000000100000100000100000000000000000000000,
|
|
100000000000100000100000100000000000200000000000,
|
|
100000000000100000100000100000000000000000000000,
|
|
100000000000100000100000100000000000200000000000,
|
|
100000000000100000100000100000000000000000000000,
|
|
100000100000000000200000200000000000100000000000,
|
|
300000000000300000000000300000000000000000000000,
|
|
|
|
#GOGOSTART
|
|
100000000000100000100000100000000000200000000000,
|
|
100000000000100000100000100000000000000000000000,
|
|
100000000000100000100000100000000000100000000000,
|
|
100000000000100000100000100000000000000000000000,
|
|
100000000000100000100000100000000000200000000000,
|
|
100000000000100000100000100000000000000000000000,
|
|
100000000000100000100000100000000000300000000000,
|
|
300000000000300000000000600000000000000008000000,
|
|
|
|
#GOGOEND
|
|
|
|
|
|
#END
|
|
|
|
|
|
COURSE:Easy
|
|
LEVEL:3
|
|
SCOREINIT:1400
|
|
SCOREDIFF:800
|
|
|
|
|
|
#START
|
|
|
|
|
|
100000000000000000000000000000000000000000000000,
|
|
100000000000000000100000000000000000000000000000,
|
|
100000000000000000000000000000000000000000000000,
|
|
100000000000000000100000000000000000000000000000,
|
|
100000000000000000000000200000000000000000000000,
|
|
100000000000100000000000100000000000000000000000,
|
|
100000000000000000000000200000000000000000000000,
|
|
100000000000100000000000100000000000000000000000,
|
|
100000000000000000000000100000000000100000000000,
|
|
100000000000000000000000100000000000100000000000,
|
|
100000000000000000000000100000000000100000000000,
|
|
500000000000000000000008000000000000000000000000,
|
|
100000000000100000000000100000000000000000000000,
|
|
100000000000100000000000200000000000000000000000,
|
|
100000000000100000000000100000000000000000000000,
|
|
100000000000100000000000200000000000000000000000,
|
|
100000000000100000000000100000000000000000000000,
|
|
100000000000100000000000200000000000000000000000,
|
|
100000000000000000000000200000000000000000000000,
|
|
300000000000000000000000300000000000000000000000,
|
|
|
|
#GOGOSTART
|
|
100000000000000000000000100000000000100000000000,
|
|
100000000000100000000000200000000000000000000000,
|
|
100000000000100000000000100000000000000000000000,
|
|
100000000000100000000000100000000000000000000000,
|
|
100000000000000000000000100000000000100000000000,
|
|
100000000000100000000000200000000000000000000000,
|
|
100000000000000000000000200000000000300000000000,
|
|
300000000000300000000000600000000000000008000000,
|
|
|
|
#GOGOEND
|
|
|
|
|
|
#END
|
|
|