315 lines
13 KiB
Plaintext
315 lines
13 KiB
Plaintext
//TJADB Project
|
|
TITLE:BE ALL RIGHT!
|
|
TITLEJA:BE ALL RIGHT!
|
|
SUBTITLE:--11WATER
|
|
BPM:179
|
|
WAVE:BE ALL RIGHT!.ogg
|
|
OFFSET:-1.386
|
|
DEMOSTART:61.365
|
|
|
|
COURSE:Oni
|
|
LEVEL:8
|
|
|
|
|
|
#START
|
|
|
|
|
|
000000000000000000000000000000000000000000000000,
|
|
000000000000000000000000000000000000000000000000,
|
|
300000000000000000000000200200000200200000200000,
|
|
100000100000100000000000100000000100100000100000,
|
|
000000200000000000200000000000100000100000200000,
|
|
100000100000100000000000100000000100100000100000,
|
|
000000200000000000200000000000100000100000200000,
|
|
100000100000100000000000100000000100100000100000,
|
|
000000200000000000200000000000100000100000200000,
|
|
300000100000100000300000000000100000100000300000,
|
|
000000100000100000300000000000000000000000000000,
|
|
000000200000200000000000200200000200200000200000,
|
|
100000200000100000200000100000100000100000200000,
|
|
000000000000000000200000000000000000100000100000,
|
|
100000200000100000200000100000100000100000200000,
|
|
000000000000000000200000000000000000100000100000,
|
|
100000200000100000200000100000100000100000200000,
|
|
000000200000000000200000100000100000200000000000,
|
|
300000000000100000000000100000000100000000100000,
|
|
300000000000000000000000200200200200200000000000,
|
|
100000200000100000200000100000100000100000200000,
|
|
000000000000000000200000000000000000100000100000,
|
|
100000200000100000200000100000100000100000200000,
|
|
000000000000000000200000000000000000100000100000,
|
|
100000200000100000200000100000100000100000200000,
|
|
000000200000000000200000100000200000200000000000,
|
|
100000000000100000000000100000000100000000100000,
|
|
200200000200200000000000200200000200200000000000,
|
|
000000100100100000100000100000000000400000000000,
|
|
100000100000100000100000200000000000200000100000,
|
|
000000100000100000100000200000000000200000000000,
|
|
000000200000000000000000000000200000000000000000,
|
|
000000200000000000000000000000200000000000000000,
|
|
100000100000200000100000100000000000200000100000,
|
|
000000100000200000100000100000100000200000100000,
|
|
100000000000000000000000200000000000000000000000,
|
|
100000000000000000000000200200000200200000200000,
|
|
100000200000100000200000100100200000100000200000,
|
|
100000200000100000200000100200000200100000200000,
|
|
100000200000100000200000100100200000100000200000,
|
|
100000200000100000200000100200000200100000200000,
|
|
300000000000000000000000000000000000000000000000,
|
|
100000000000100000100000100000200000200000200000,
|
|
500000000000000000000000000000000008000000000000,
|
|
000000300000300000300000300000000000100000000000,
|
|
100000000000200000000000200000100000100000200000,
|
|
000000200000000000200000000000000000000000000000,
|
|
100000000000200000000000100000100000200000200000,
|
|
000000200000000000200000000000100000200000000000,
|
|
100000100000200000000000100000100000200000000000,
|
|
100000100000100000200000100000100000200000000000,
|
|
300000000000400000000000000000000000000000100000,
|
|
100000100000000000300000000000000000100000000000,
|
|
100000000000200000000000200000100000100000200000,
|
|
000000200000000000200000000000000000000000000000,
|
|
100000000000200000000000100000100000200000200000,
|
|
000000200000000000200000000000100000200000000000,
|
|
100000100000200000000000100000100000200000000000,
|
|
100000100000100000200000100000100000200000000000,
|
|
300000000000400000000000000000000000000000000000,
|
|
100000000000000000100000100000200000200000100000,
|
|
000000300000200000000000200000000000200000000000,
|
|
000000100000100000100000100000000000300000000000,
|
|
|
|
|
|
#END
|
|
|
|
|
|
COURSE:Hard
|
|
LEVEL:4
|
|
SCOREINIT:940
|
|
SCOREDIFF:240
|
|
|
|
|
|
#START
|
|
|
|
|
|
000000000000000000000000000000000000000000000000,
|
|
000000000000000000000000000000000000000000000000,
|
|
300000000000000000000000000000000000000000000000,
|
|
100000100000100000000000100000000000100000100000,
|
|
000000200000000000200000000000200000200000200000,
|
|
100000100000100000000000100000000000100000100000,
|
|
000000200000000000200000000000200000200000200000,
|
|
100000100000100000000000100000000000100000100000,
|
|
000000200000000000200000000000200000200000200000,
|
|
100000100000100000300000000000100000100000300000,
|
|
000000100000100000300000000000000000000000000000,
|
|
000000000000000000000000000000000000100000000000,
|
|
100000200000000000200000000000200000000000200000,
|
|
000000000000000000200000000000000000100000000000,
|
|
100000200000000000200000000000200000000000200000,
|
|
000000000000000000200000000000000000100000000000,
|
|
100000200000000000200000000000200000000000200000,
|
|
000000200000000000200000000000200000200000000000,
|
|
300000000000100000000000100000000100000000100000,
|
|
500000000000000000000080000000000000100000000000,
|
|
100000200000000000200000000000200000200000200000,
|
|
000000000000000000200000000000000000100000000000,
|
|
100000200000000000200000000000200000200000200000,
|
|
000000000000000000200000000000000000100000000000,
|
|
100000200000000000200000000000200000200000200000,
|
|
000000200000000000200000000000200000200000200000,
|
|
100000000000100000000000100000000100000000100000,
|
|
000000500000000000000000000000000000000000000080,
|
|
000000000000000000000000000000000000000000000000,
|
|
100000100000100000000000200000000000200000000000,
|
|
100000100000100000000000200000000000000000000000,
|
|
000000200000000000000000000000200000000000000000,
|
|
000000200000000000000000000000200000000000000000,
|
|
100000100000100000000000100000000000200000000000,
|
|
100000100000100000000000200000000000200000000000,
|
|
100000100000100000000000100000000000200000000000,
|
|
100000100000100000000000100000100000100000000000,
|
|
100000000000200000000000100000100000200000000000,
|
|
100000000000200000000000100000100000200000000000,
|
|
100000000000200000000000100000100000200000000000,
|
|
100000000000200000000000100000100000200000000000,
|
|
300000000000000000000000000000000000000000000000,
|
|
100000000000200000000000100000100000200000000000,
|
|
500000000000000000000000000000000080000000000000,
|
|
300000000000000000000000000000000000100000000000,
|
|
100000000000100000000000100000100000000000200000,
|
|
000000200000000000200000000000000000000000000000,
|
|
100000000000100000000000100000100000000000200000,
|
|
000000200000000000200000000000000000000000000000,
|
|
100000000000000000000000200000000000000000000000,
|
|
100000000000200000000000100000000000200000000000,
|
|
100000000000200000000000000000000000000000100000,
|
|
100000100000000000300000000000000000100000000000,
|
|
100000000000100000000000100000100000000000200000,
|
|
000000200000000000200000000000000000000000000000,
|
|
100000000000100000000000100000100000000000200000,
|
|
000000200000000000200000000000000000000000000000,
|
|
100000000000000000000000200000000000000000000000,
|
|
100000000000200000000000100000000000200000000000,
|
|
100000000000200000000000000000000000000000000000,
|
|
100000000000000000100000100000100000000000100000,
|
|
000000300000000000000000000000000000000000000000,
|
|
000000100000100000100000100000000000300000000000,
|
|
|
|
|
|
#END
|
|
|
|
|
|
COURSE:Normal
|
|
LEVEL:4
|
|
SCOREINIT:1070
|
|
SCOREDIFF:310
|
|
|
|
|
|
#START
|
|
|
|
|
|
000000000000000000000000000000000000000000000000,
|
|
000000000000000000000000000000000000000000000000,
|
|
300000000000000000000000000000000000000000000000,
|
|
100000000000100000000000100000000000000000000000,
|
|
000000200000000000200000000000000000000000000000,
|
|
100000000000100000000000100000000000000000000000,
|
|
000000200000000000200000000000000000000000000000,
|
|
100000000000100000000000100000000000000000000000,
|
|
000000200000000000200000000000000000000000000000,
|
|
300000000000000000300000000000000000000000300000,
|
|
000000000000000000300000000000000000000000000000,
|
|
000000000000000000000000000000000000100000000000,
|
|
100000000000100000000000100000100000000000100000,
|
|
000000000000000000200000000000000000100000000000,
|
|
100000000000100000000000100000100000000000100000,
|
|
000000000000000000200000000000000000100000000000,
|
|
100000000000100000000000100000100000000000100000,
|
|
000000100000000000100000000000100000000000000000,
|
|
300000000000100000000000100000000000100000000000,
|
|
500000000000000000800000000000000000100000000000,
|
|
200000000000100000000000100000100000000000100000,
|
|
000000000000000000200000000000000000100000000000,
|
|
200000000000100000000000100000100000000000100000,
|
|
000000000000000000200000000000000000100000000000,
|
|
200000000000100000000000100000100000000000100000,
|
|
000000100000000000100000000000100000000000100000,
|
|
100000000000100000000000100000000000100000000000,
|
|
500000000000000000000000000000000000000000800000,
|
|
000000000000000000000000000000000000000000000000,
|
|
100000000000100000000000200000000000000000000000,
|
|
100000100000100000000000200000000000000000000000,
|
|
200000000000000000000000200000000000000000000000,
|
|
200000000000000000000000200000000000000000000000,
|
|
100000000000100000000000200000000000000000000000,
|
|
100000100000100000000000200000000000000000000000,
|
|
100000000000100000000000200000000000000000000000,
|
|
100000100000100000000000200000000000000000000000,
|
|
100000000000000000000000100000000000000000000000,
|
|
100000000000000000000000100000100000100000000000,
|
|
100000000000000000000000100000000000000000000000,
|
|
100000000000000000000000100000100000100000000000,
|
|
300000000000000000000000000000000000000000000000,
|
|
100000000000200000000000100000000000200000000000,
|
|
500000000000000000000000000000800000000000000000,
|
|
300000000000000000000000000000000000000000000000,
|
|
100000000000100000000000100000000000000000200000,
|
|
000000200000000000200000000000000000000000000000,
|
|
100000000000100000000000100000000000000000200000,
|
|
000000200000000000200000000000000000000000000000,
|
|
100000000000000000000000100000000000000000000000,
|
|
100000000000100000000000100000000000100000000000,
|
|
100000000000100000000000000000000000000000100000,
|
|
000000100000000000300000000000000000000000000000,
|
|
100000000000100000000000100000000000000000200000,
|
|
000000200000000000200000000000000000000000000000,
|
|
100000000000100000000000100000000000000000200000,
|
|
000000200000000000200000000000000000000000000000,
|
|
100000000000000000000000100000000000000000000000,
|
|
100000000000100000000000100000000000100000000000,
|
|
100000000000100000000000000000000000000000000000,
|
|
100000000000000000100000100000100000000000100000,
|
|
000000300000000000000000000000000000000000000000,
|
|
000000100000100000100000100000000000300000000000,
|
|
|
|
|
|
#END
|
|
|
|
|
|
COURSE:Easy
|
|
LEVEL:4
|
|
SCOREINIT:1310
|
|
SCOREDIFF:500
|
|
|
|
|
|
#START
|
|
|
|
|
|
000000000000000000000000000000000000000000000000,
|
|
000000000000000000000000000000000000000000000000,
|
|
300000000000000000000000000000000000000000000000,
|
|
100000000000000000000000100000000000000000000000,
|
|
200000000000000000000000200000000000000000000000,
|
|
100000000000000000000000100000000000000000000000,
|
|
200000000000000000000000200000000000000000000000,
|
|
100000000000000000000000100000000000000000000000,
|
|
200000000000000000000000200000000000000000000000,
|
|
300000000000000000300000000000000000000000300000,
|
|
000000000000000000300000000000000000000000000000,
|
|
000000000000000000000000000000000000000000000000,
|
|
100000000000100000000000100000000000000000000000,
|
|
000000000000000000200000000000000000000000000000,
|
|
100000000000100000000000100000000000000000000000,
|
|
000000000000000000200000000000000000000000000000,
|
|
100000000000100000000000100000000000000000000000,
|
|
100000000000000000000000100000000000000000000000,
|
|
300000000000000000000000000000000000000000000000,
|
|
500000000000000000800000000000000000000000000000,
|
|
100000000000100000000000100000000000000000000000,
|
|
000000000000000000200000000000000000000000000000,
|
|
100000000000100000000000100000000000000000000000,
|
|
000000000000000000200000000000000000000000000000,
|
|
100000000000100000000000100000000000000000000000,
|
|
000000000000100000000000000000000000100000000000,
|
|
000000000000100000000000000000000000100000000000,
|
|
500000000000000000000000000000000000000000800000,
|
|
000000000000000000000000000000000000000000000000,
|
|
100000000000000000000000200000000000000000000000,
|
|
100000000000000000000000200000000000000000000000,
|
|
000000000000200000000000000000000000200000000000,
|
|
000000000000200000000000000000000000000000000000,
|
|
100000000000000000000000200000000000000000000000,
|
|
100000000000000000000000200000000000000000000000,
|
|
500000000000000000800000000000000000000000000000,
|
|
100000000000000000000000000000000000000000000000,
|
|
100000000000000000000000100000000000000000000000,
|
|
100000000000100000000000100000000000000000000000,
|
|
100000000000000000000000100000000000000000000000,
|
|
100000000000100000000000100000000000000000000000,
|
|
300000000000000000000000000000000000000000000000,
|
|
100000000000000000000000100000000000000000000000,
|
|
500000000000000000000000000000800000000000000000,
|
|
300000000000000000000000000000000000000000000000,
|
|
100000000000100000000000100000000000000000200000,
|
|
000000000000000000200000000000000000000000000000,
|
|
100000000000100000000000100000000000000000200000,
|
|
000000000000000000200000000000000000000000000000,
|
|
100000000000000000000000100000000000000000000000,
|
|
100000000000100000000000100000000000000000000000,
|
|
300000000000000000000000000000000000000000000000,
|
|
100000000000000000100000000000000000000000000000,
|
|
100000000000100000000000100000000000000000200000,
|
|
000000000000000000200000000000000000000000000000,
|
|
100000000000100000000000100000000000000000200000,
|
|
000000000000000000200000000000000000000000000000,
|
|
100000000000000000000000100000000000000000000000,
|
|
100000000000100000000000100000000000000000000000,
|
|
300000000000000000000000000000000000000000000000,
|
|
100000000000100000000000100000000000000000000000,
|
|
100000000000100000000000000000000000000000000000,
|
|
000000000000100000000000100000000000300000000000,
|
|
|
|
|
|
#END
|
|
|