Files
ESE/01 Pop/Chijou no Hoshi/Chijou no Hoshi.tja
T
2023-06-15 19:15:39 -05:00

223 lines
7.6 KiB
Plaintext
Raw Blame History

This file contains ambiguous Unicode characters
This file contains Unicode characters that might be confused with other characters. If you think that this is intentional, you can safely ignore this warning. Use the Escape button to reveal them.
//TJADB Project
TITLE:Chijou no Hoshi
TITLEJA:地上の星
SUBTITLE:--Ichizo Seo feat. Miyuki Nakajima/Project X ~Challengers~
BPM:100
WAVE:Chijou no Hoshi.ogg
OFFSET:-2.693
DEMOSTART:66.300
COURSE:Oni
LEVEL:7
SCOREINIT:990
SCOREDIFF:240
#START
100000000100100000100100000100100000100100100000,
100000000100100000100100000100100000100100100000,
100000000100100000100100000100100000100100100000,
100000000100100000100100000100100000100100100000,
100000000100200000100100000100200000100100200000,
100000000100200000100100000100200000100100200000,
300000000000100000100000100100100000100100100000,
100000000100100000200200000100200000100100200000,
300000000000100000100000100100100000100100100000,
100000000100100000200200000100200000100100200000,
300000000000100000200000100100200000200200100000,
100000000100200000200100000100200000100200200000,
300000000000000000100000100100100000100000100000,
100000500000000000000000000000000008000000000000,
300000000000100000100000100100100000100100100000,
100000000100100000200100000100200100100200200000,
300000000000100000100000100100100000100100100000,
100000000100100000200100000100200100100200200000,
300000000000100000200000100100200000200200100000,
100000000100200000200100000100200000100200200000,
300000000000000000100000100100100000100000100000,
100000500000000000000000000000000008000000000000,
100000000100000000100000000000100100200000100000,
100000000100000000100000000000100100200100100000,
100000000100000000100000100000100100200100100200,
100000000200200000000000100000000100000000100000,
#MEASURE 2/4
300000000300000000400000,
#GOGOSTART
#MEASURE 4/4
100000000100200200100000100000200100200100100000,
100000000100000100100000100000200100100200100000,
100000000100200100100200100000200100200100100000,
100000000100000100100000500000000000000008000000,
100000000100200200100000100000200100200100100000,
100000000100000100100000100000200100100200100000,
100000000100200100100200100000200100200100100000,
300000000300000000300000600000000000000000000008,
#GOGOEND
#END
COURSE:Hard
LEVEL:5
SCOREINIT:1260
SCOREDIFF:330
#START
100000000100100000100000000000000000000000000000,
100000000100100000100000000000100000200000000000,
100000000100100000100000000000000000000000000000,
100000000100100000100000000000100000200000000000,
100000000100100000100000000000100000200000100000,
100000000000000000000000000000000000000000000000,
300000000000100000100000200000200000100000000000,
100000000100100000100000000000100000200000000000,
100000000000100000100000200000200000100000000000,
100000000100100000000000000000000000000000000000,
100000000000100000100000200000200000100000200000,
100000000100100000200000000000100000200000000000,
100000000000000000100000200000200000100000000000,
500000000000000000000000000000000800000000000000,
300000000000100000100000200000200000100000000000,
100000000100100000100000000000100000200000000000,
100000000000100000100000200000200000100000000000,
100000000100100000100000000000200200200000000000,
100000000000100000100000200000200000100000200000,
100000000100100000200000000000100000200000000000,
100000000000000000100000200000200000100000000000,
500000000000000000000000000000000800000000000000,
200000100100100000200000100000100000200000000000,
200000100100100000200000100000100000200000000000,
200000100100100000200000100000100000200000100000,
500000000000000000000000000000000000000000000800,
#MEASURE 2/4
000000000000000000000000,
#MEASURE 4/4
#GOGOSTART
100000000100200000100000100000100000200000100100,
100000000100000000100000500000000800000000000000,
100000000100200000100000100000100000200000100100,
100000000100000000100000500000000800000000000000,
100000000100200000100000100000100000200000100100,
100000000100000000100000500000000800000000000000,
300000000300000000300000300000000000000000000000,
300000000300000000300000600000000000000000000800,
#GOGOEND
#END
COURSE:Normal
LEVEL:4
SCOREINIT:1660
SCOREDIFF:680
#START
100000000000000000000000000000000000000000000000,
100000000000000000000000000000100000100000000000,
100000000000000000000000000000000000000000000000,
100000000000000000000000000000100000100000000000,
100000000000000000000000000000000000000000000000,
100000000000000000000000000000100000100000000000,
000000000000100000000000100000000000000000000000,
100000000100100000000000000000000000200000000000,
000000000000100000000000100000000000000000000000,
100000000100100000000000000000000000200000000000,
000000000000100000100000100000000000100000000000,
100000000100100000000000000000000000000000000000,
100000000000000000100000100000000000100000000000,
500000000000000000000000000800000000000000000000,
000000000000100000000000100000000000000000000000,
100000000100100000000000000000000000200000000000,
000000000000100000000000100000000000000000000000,
200000000200200000000000000000000000200000000000,
000000000000100000000000000000000000100000000000,
100000000100100000000000000000000000000000000000,
100000000000000000100000100000000000100000000000,
500000000000000000000000000800000000000000000000,
100000000000100000000000100000000000200000000000,
100000000000100000000000100000000000200000000000,
100000000000100000000000100000000000100000100000,
100000000100100000000000000000000000000000000000,
#MEASURE 2/4
000000000000000000000000,
#MEASURE 4/4
#GOGOSTART
100000000100000000100000100000000000000000000000,
100000000000100000000000100000000000000000000000,
300000000000000000000000300000000000000000000000,
300000000000000000000000300000000000000000000000,
100000000100000000100000100000000000000000000000,
100000000000100000000000100000000000000000000000,
300000000000000000000000300000000000000000000000,
300000000000300000000000600000000000000000000800,
#GOGOEND
#END
COURSE:Easy
LEVEL:3
SCOREINIT:1480
SCOREDIFF:800
#START
100000000000000000000000000000000000000000000000,
100000000000000000000000000000000000000000000000,
100000000000000000000000000000000000000000000000,
100000000000000000000000000000000000000000000000,
100000000000000000000000200000000000000000000000,
100000000000000000000000200000000000000000000000,
000000000000100000000000100000000000000000000000,
100000000000100000000000000000000000000000000000,
000000000000100000000000100000000000000000000000,
200000000000200000000000000000000000000000000000,
000000000000100000000000000000000000100000000000,
100000000000100000000000000000000000000000000000,
100000000000000000100000100000000000100000000000,
500000000000000000000000000800000000000000000000,
000000000000100000000000100000000000000000000000,
100000000000100000000000000000000000000000000000,
000000000000100000000000100000000000000000000000,
200000000000200000000000000000000000000000000000,
000000000000100000000000000000000000100000000000,
100000000000100000000000000000000000000000000000,
100000000000000000100000100000000000100000000000,
500000000000000000000000000800000000000000000000,
100000000000000000000000100000000000200000000000,
100000000000000000000000100000000000200000000000,
100000000000000000000000100000000000200000000000,
100000000000000000000000000000000000000000000000,
#MEASURE 2/4
000000000000000000000000,
#MEASURE 4/4
#GOGOSTART
100000000000000000000000100000000000000000000000,
500000000000000000000000000800000000000000000000,
300000000000000000000000300000000000000000000000,
300000000000300000000000300000000000000000000000,
100000000000000000000000100000000000000000000000,
500000000000000000000000000800000000000000000000,
300000000000000000000000300000000000000000000000,
300000000000300000000000600000000000000000000800,
#GOGOEND
#END