Files
ESE/01 Pop/Choo Choo TRAIN/Choo Choo TRAIN.tja
T
2023-06-15 19:15:39 -05:00

349 lines
14 KiB
Plaintext

//TJADB Project
TITLE:Choo Choo TRAIN
TITLEJA:Choo Choo TRAIN
SUBTITLE:--EXILE
BPM:115
WAVE:Choo Choo TRAIN.ogg
OFFSET:-2.093
DEMOSTART:116.871
COURSE:Oni
LEVEL:7
#START
000000000000200000000000000000100000200000000000,
100000000000200000000000000000100000200000000000,
100000100000200000100100000100100000200000200200,
100000100000200000100100100000100000200000100100,
100000100000200000100100100000100000200000000000,
100000100000200000100100100000100000200000100100,
100000100000200000100100100000100000200000000000,
100000100000200000100100100000100000200000100100,
100000100000200000100100100000100000200000200000,
100000100000200000100100200000100100200200100000,
000000003000000030000000300000003000000030000000,
#GOGOSTART
100100100000200000100100200000100100200200200000,
100000000000200000100000000000200000200000000000,
100100100000200000100100100000100000200200100000,
100000100000200200100000100000200200200000000000,
100000100000200000100100200000100100200200200000,
100000000000200000100000000000200000200000000000,
100000100000200000100100100000100000200000100100,
100000200000200000300000000000300000000000400000,
100100000200200000100100000000200000200000200200,
100100000200200000100100000000400000400000000000,
#GOGOEND
300000000000000000000000000000000000000000000000,
500000000000000000000000000000000008000000000000,
100000100000200000100100200000100000200000100100,
100000100000200000100100200100100000200000000000,
100000100000200000100100200000100000200000100100,
100000100000200000100100200100100000200000000000,
100000100000200000100100200000100000200000100100,
100000100000200000100100200100100000200000000000,
100000100000200000100100000000500000000000000000,
000000000008000000000000100000100100200000100100,
000000100000200000100100000000100000200000100100,
000000100000200000000000100000100100200000100100,
000000100000200000100100000000100000200000100100,
000000100000200000000000100100100100200000100100,
000000200200100000000000200200100000100000200200,
000000200200100000000000200200100000100000200200,
000000200200100000000000200200100000100000200200,
000000200200100000200200100000200200100100200200,
100000100000200000100100200100100000200000100100,
100000100000200000100100200100100000200000200000,
100000100000200000100100200100100000200000100100,
100000100000200000100100200100100000200000200000,
100000100000200000100100200100100000200000100100,
100000100000200000100100200100100000200000200000,
100000100000200000100100000000500000000000000000,
000000000008000000000000100000100100200000100100,
000000100000200000100100000000100000200000100100,
000000100000200000100100100000100100200000100100,
000000100000200000100100000000100000200000100100,
000000100000200000000000100100100100200000100100,
000000200200100000000000200200100000100000200200,
000000200200100000000000200200100000100000200200,
000000200200100000000000200200100000100000200200,
000000100000100000000000100000100000000000100000,
#GOGOSTART
100100100000200000100100200000100100200200200000,
100000000000200000100000000000200000200000000000,
100100100000200000100100100000100000200200100000,
100000100000200200100000100000200200200000000000,
100000100000200000100100200000100100200200200000,
100000000000200000100000000000200000200000000000,
100000100000200000100100100000100000200000100100,
100000200000200000300000000000300000000000400000,
100100000200200000100100000000200000200000200200,
100100000200200000100100000000400000400000000000,
#GOGOEND
300000000000000000000000000000000000000000000000,
#END
COURSE:Hard
LEVEL:5
SCOREINIT:500
SCOREDIFF:140
#START
000000000000200000000000000000000000200000000000,
000000000000200000000000000000100000200000000000,
100000100000200000100000000100100000200000000000,
100000100000200000100100100000000000200000100000,
100000100000200000100100100000000000200000000000,
100000100000200000100100100000000000200000100000,
100000100000200000100100100000000000200000000000,
100000100000200000100100100000000000200000100000,
100000100000200000100100100000000000200000000000,
100000000000200000100000000000100000200000100000,
000000001000000010000000100000001000000010000000,
#GOGOSTART
100000000000100000000000100000000000200000200000,
300000000000000000300000000000000000200000000000,
100000100000200000100000100000000000200000100000,
000000100000200000100000000000200000200000000000,
100000000000100000000000100000000000200000200000,
300000000000000000300000000000200000200000000000,
100000100000200000100100100000000000200000100000,
100000000000200000100000000000100000000000200000,
100100000000200000100100000000200000200000000000,
100100000000200000100100000000000000400000000000,
#GOGOEND
300000000000000000000000000000000000000000000000,
500000000000000000000000000000000800000000000000,
100000000000200000000100100000100000200000100000,
100000000000200000000100100000100000200000000000,
100000000000200000000100100000100000200000100000,
100000000000200000000100100000100000200000000000,
100000000000200000000100100000100000200000100000,
100000000000200000000100100000100000200000000000,
100000000000200000100000000000500000000000000000,
000000000800000000000000100000100000200000100000,
000000100000200000100000000000100000200000100000,
000000100000200000000000100000100000200000100000,
000000100000200000100000000000100000200000100000,
000000100000200000000000100000100000200000000000,
000000200000100000000000200000100000100000200000,
000000200000100000000000200000100000100000200000,
000000200000100000000000200000100000100000200000,
000000100000100000000000100000200000100100100000,
100000000000200000000100100000100000200000100000,
100000000000200000000100100000100000200000200000,
100000000000200000000100100000100000200000100000,
100000000000200000000100100000100000200000200000,
100000000000200000000100100000100000200000100000,
100000000000200000000100100000100000200000200000,
100000000000200000100000000000500000000000000000,
000000000800000000000000100000100000200000100000,
000000100000200000100000000000100000200000100000,
000000100000200000000000100000100000200000100000,
000000100000200000100000000000100000200000100000,
000000100000200000000000100100100000200000100000,
000000200000100000000000200000100000100000200000,
000000200000100000000000200000100000100000200000,
000000200000100000000000200000100000100000200000,
000000200000200000000000200000200000000000200000,
#GOGOSTART
100000000000100000000000100000000000200000200000,
300000000000000000300000000000000000200000000000,
100000000000200000100100100000000000200000100000,
000000100000200000100000000000200000200000000000,
100000000000100000000000100000000000200000200000,
300000000000000000300000000000200000200000000000,
100000100000200000100100100000000000200000100000,
100000000000200000100000000000100000000000200000,
100100000000200000100100000000200000200000000000,
100100000000200000100100000000000000400000000000,
#GOGOEND
300000000000000000000000000000000000000000000000,
#END
COURSE:Normal
LEVEL:2
SCOREINIT:500
SCOREDIFF:150
#START
000000000000000000000000000000000000000000000000,
000000000000000000000000000000000000000000000000,
000000000000000000000000000000000000000000000000,
100000100000200000000000100000000000200000000000,
100000000000200000100000000000000000000000000000,
100000100000200000000000100000000000200000000000,
100000000000200000200000000000000000000000000000,
100000100000200000000000100000000000200000000000,
100000000000200000100000000000000000000000000000,
100000000000000000100000000000100000100000100000,
000000005000000000000000000000000000800000000000,
#GOGOSTART
100000000000100000000000100000000000000000000000,
300000000000000000300000000000000000000000000000,
100000000000100000100000100000000000100000100000,
000000000000100000100000000000200000000000000000,
100000000000100000000000100000000000000000000000,
300000000000000000300000000000000000100000000000,
100000000000100000100000000000000000100000100000,
100000000000000000100000000000100000000000000000,
100100000000000000100100000000000000000000000000,
100100000000000000100100000000000000200000000000,
#GOGOEND
100000000000000000000000000000000000000000000000,
500000000000000000000000000000800000000000000000,
100000000000200000100000000000000000100000000000,
100000000000200000100000000000000000200000000000,
100000000000200000100000000000000000100000000000,
100000000000200000100000000000000000200000000000,
100000000000200000100000000000000000100000000000,
100000000000200000100000000000000000200000000000,
100000000000000000500000000000000000000000000000,
000000800000000000000000100000000000100000100000,
000000100000000000100000000000100000100000000000,
000000100000000000100000000000100000100000100000,
000000100000000000100000000000100000100000000000,
000000100000000000100000100000000000100000000000,
000000200000100000000000200000000000100000000000,
000000200000100000000000200000000000100000000000,
000000200000100000000000200000000000100000000000,
000000200000200000000000200000000000200000000000,
100000000000200000100000000000100000100000000000,
100000000000200000100000000000000000200000000000,
100000000000200000100000000000100000100000000000,
100000000000200000100000000000000000200000000000,
100000000000200000100000000000100000100000000000,
100000000000200000100000000000000000200000000000,
100000000000000000500000000000000000000000000000,
000000800000000000000000100000000000100000100000,
000000100000000000100000000000100000100000000000,
000000100000000000100000000000100000100000100000,
000000100000000000100000000000100000100000000000,
000000100000000000100000100000000000100000000000,
000000200000100000000000200000000000100000000000,
000000200000100000000000200000000000100000000000,
000000200000100000000000200000000000100000000000,
000000200000200000000000200000200000000000200000,
#GOGOSTART
100000000000100000000000100000000000000000000000,
300000000000000000300000000000000000000000000000,
100000000000100000100000100000000000100000100000,
000000000000100000100000000000200000000000000000,
100000000000100000000000100000000000000000000000,
300000000000000000300000000000000000100000000000,
100000000000100000100000000000000000200000000000,
100000000000000000300000000000300000000000000000,
100100000000000000100100000000000000000000000000,
100100000000000000100100000000000000200000000000,
#GOGOEND
300000000000000000000000000000000000000000000000,
#END
COURSE:Easy
LEVEL:3
BALLOON:9
SCOREINIT:620
SCOREDIFF:200
#START
000000000000000000000000000000000000000000000000,
000000000000000000000000000000000000000000000000,
000000000000000000000000000000000000000000000000,
100000000000000000000000200000000000000000000000,
100000000000100000000000100000000000000000000000,
100000000000000000000000200000000000000000000000,
100000000000100000000000100000000000000000000000,
100000000000000000000000200000000000000000000000,
100000000000100000000000100000000000000000000000,
100000000000000000000000200000000000000000000000,
100000000000100000000000100000000000000000000000,
#GOGOSTART
100000000000100000000000100000000000000000000000,
300000000000000000300000000000000000000000000000,
100000000000100000000000100000000000000000000000,
500000000000800000000000000000000000000000000000,
100000000000100000000000100000000000000000000000,
300000000000000000300000000000000000000000000000,
100000000000100000000000100000000000000000000000,
100000000000000000000000100000000000000000000000,
100000000000000000100000000000000000000000000000,
100000000000000000100000000000000000000000000000,
#GOGOEND
000000000000200000000000000000000000200000000000,
000000000000200000000000000000000000200000000000,
100000000000000000000000000000000000100000000000,
100000000000000000000000100000000000000000000000,
100000000000000000000000000000000000100000000000,
100000000000000000000000100000000000000000000000,
100000000000000000000000100000000000100000000000,
100000000000000000000000100000000000000000000000,
100000000000000000000000100000000000100000000000,
100000000000000000000000100000000000000000000000,
100000000000200000000000100000000000000000000000,
100000000000000000000000100000000000000000000000,
100000000000200000000000100000000000000000000000,
100000000000000000000000100000000000000000000000,
100000000000200000000000100000000000000000000000,
100000000000000000000000100000000000000000000000,
100000000000200000000000100000000000000000000000,
100000000000000000000000100000000000000000000000,
100000000000000000000000200000000000100000000000,
100000000000000000000000200000000000000000000000,
100000000000000000000000200000000000100000000000,
100000000000000000000000200000000000000000000000,
100000000000000000000000200000000000100000000000,
100000000000000000000000200000000000000000000000,
100000000000000000000000200000000000100000000000,
100000000000000000000000200000000000000000000000,
100000000000100000000000100000000000000000000000,
200000000000000000000000200000000000000000000000,
100000000000100000000000100000000000000000000000,
200000000000000000000000200000000000000000000000,
100000000000100000000000100000000000000000000000,
200000000000000000000000100000000000000000000000,
100000000000100000000000100000000000000000000000,
200000000000000000000000200000000000000000000000,
#GOGOSTART
100000000000100000000000100000000000000000000000,
300000000000000000300000000000000000000000000000,
100000000000100000000000100000000000000000000000,
500000000000800000000000000000000000000000000000,
100000000000100000000000100000000000000000000000,
300000000000000000300000000000000000000000000000,
100000000000100000000000100000000000000000000000,
100000000000000000000000100000000000000000000000,
9,
08,
#GOGOEND
300000000000000000000000000000000000000000000000,
#END