Files
ESE/01 Pop/Chu Shen Ru Hua/Chu Shen Ru Hua.tja
T

276 lines
10 KiB
Plaintext

//TJADB Project
TITLE:Chu Shen Ru Hua
TITLEZH:出神入化
SUBTITLE:--Fahrenheit/The X-Family
SUBTITLEZH:飛輪海
BPM:110
WAVE:Chu Shen Ru Hua.ogg
OFFSET:-2.580
DEMOSTART:65.534
COURSE:Oni
LEVEL:7
SCOREINIT:720
SCOREDIFF:180
#START
100000000100200000100000000000100000200000000000,
100000000100200000100000200000200000200000000000,
100000000100200000100000000000100000200000100000,
100000000100200000100000000000100000200000200000,
100000000100200000100000000000100000200000000000,
100000000100200000100000000000100000200100000000,
100000000100200000100000000000100000200000000000,
300000000300000000300000000000100000200000200000,
#GOGOSTART
100100100000200000200000100100200000200000200200,
100100100000200000200000100100100000100000200200,
100100100000200000200000100100200000200000200200,
100100100000200000200000100100100000200000000000,
#GOGOEND
100000000100200000100000000000100000200000000000,
100000000100200000100000000000100000200000000000,
100000000100200000100000000000100000200000000000,
100000000100200000100000200200100000200000200000,
100000000100200000100000000000100000200000000000,
100000000100200000100000000000100000200000000000,
100000000100200000100000000000100000200000000000,
100000000100200000100000200200100000200000200000,
100000000100200200100000000000200100200000000000,
100000000100200200100000000000200100200000000000,
100000000100200200100000000000200100200000000000,
100000000100200200100000200000200100200000200200,
100000000100200200100000000000200100200000000000,
100000000100200200100000000000200100200000000000,
100000000100200200100000000000200100200000000000,
100000000100200200100000200000200100200000200200,
100000000000000000000000000000000000400000400000,
100000000100200200100000100100100100200000200200,
100000000100200200100000100100100100200000000000,
100000000100200200100000100100100100200000000000,
300000000000300000000000400000000000400000200000,
100000000100200200100000100100100100200000200200,
100000000100200200100000100100100100200000000000,
100000000100200200100000100100100100200000000000,
300000000000300000000000400000000000400000200000,
100000000100200200100000200200100100200000000000,
100000000100200200100000300000300000400000400000,
#GOGOSTART
100100100000200000200000100100200000200000200200,
100100100000200000200000100100100000100000200200,
100100100000200000200000100100200000200000200200,
100100100000200000200000100100100000200000000000,
100100100000200000200000100100200000200000200200,
100100100000200000200000100100100000100000200200,
100100100000200000200000100100200000200000200200,
100100100000200000200000100100100000200000000000,
#GOGOEND
#END
COURSE:Hard
LEVEL:5
SCOREINIT:710
SCOREDIFF:180
#START
100000000000100000100000000000100000200000000000,
100000000000100000100000000000200000200000000000,
100000000000100000100000000000100000200000000000,
100000000000100000100000000000200000200000000000,
100000000000100000100000000000100000200000000000,
100000000000100000100000000000200000200000000000,
100000000000100000100000000000100000100000000000,
300000000300000000300000000000000000200000200000,
#GOGOSTART
100100100000100000000000100100100000100000000000,
100100100000200000000000100100100000200000000000,
100100100000100000000000100100100000100000000000,
100100100000200000000000100100100000200000000000,
#GOGOEND
100000000000100000100000000000100000200000000000,
100000000000100000100000000000100000200000000000,
100000000000100000100000000000100000200000000000,
100000000000100000100000000000100000200000200000,
100000000000100000100000000000100000200000000000,
100000000000100000100000000000100000200000000000,
100000000000100000100000000000100000200000000000,
100000000000100000100000000000100000200000200000,
100000000100100000100000000000100100100000000000,
100000000100100000100000000000200200200000000000,
100000000100100000100000000000100100100000000000,
100000000100100000100000000000200200200000000000,
100000000100100000100000000000100100100000000000,
100000000100100000100000000000200200200000000000,
100000000100100000100000000000100100100000000000,
100000000100100000100000000000200200200000200200,
200000000000000000000000000000000000400000400000,
100000000100100000100000100100100000100000000000,
100000000100100000100000200200200000200000000000,
100000000100100000100000100100100000100000000000,
300000000000300000000000400000000000400000000000,
100000000100100000100000100100100000100000000000,
100000000100100000100000200200200000200000000000,
100000000100100000100000100100100000100000000000,
300000000000300000000000400000000000400000000000,
100000000000200000100000000000100000200000000000,
100000000000100000000000300000300000400000400000,
#GOGOSTART
100100100000100000000000100100100000100000000000,
100100100000200000000000100100100000200000000000,
100100100000100000000000100100100000100000000000,
100100100000200000000000100100100000200000000000,
100100100000100000000000100100100000100000000000,
100100100000200000000000100100100000200000000000,
100100100000100000000000100100100000100000000000,
100100100000200000000000100100100000200000000000,
#GOGOEND
#END
COURSE:Normal
LEVEL:3
BALLOON:6
SCOREINIT:1290
SCOREDIFF:460
#START
100000000000100000000000000000000000000000000000,
100000000000100000000000000000000000000000000000,
100000000000100000000000000000000000000000000000,
100000000000000000000000100000000000000000000000,
100000000000100000000000000000000000000000000000,
100000000000100000000000000000000000000000000000,
100000000000100000000000000000000000000000000000,
300000000000000000300000000000000000000000000000,
#GOGOSTART
100000000000100000000000100000000000000000000000,
200000000000200000000000200000000000000000000000,
100000000000100000000000100000000000000000000000,
200000000000200000000000200000000000000000000000,
#GOGOEND
100000000000100000000000000000000000000000000000,
100000000000100000000000000000000000200000000000,
100000000000100000000000000000000000000000000000,
100000000000100000000000000000000000200000000000,
100000000000100000000000000000000000000000000000,
100000000000100000000000000000000000200000000000,
100000000000100000000000000000000000000000000000,
500000000000000000000000800000000000000000000000,
100000000000100000000000000000000000000000000000,
100000000000100000000000000000000000200000000000,
100000000000100000000000000000000000000000000000,
100000000000100000000000000000000000200000000000,
100000000000100000000000000000000000000000000000,
100000000000100000000000000000000000200000000000,
100000000000100000000000000000000000000000000000,
500000000000000000000000800000000000000000000000,
300000000000000000000000000000000000000000000000,
100000000000000000000000100000000000100000000000,
100000000000000000000000100000000000100000000000,
100000000000000000000000100000000000100000000000,
300000000000000000000000300000000000000000000000,
300000000000000000000000100000000000100000000000,
100000000000000000000000100000000000100000000000,
100000000000000000000000100000000000100000000000,
300000000000000000000000300000000000000000000000,
300000000000000000000000100000000000000000000000,
100000000000000000000000300000000000000000000000,
#GOGOSTART
100000000000100000000000100000000000000000000000,
200000000000200000000000200000000000000000000000,
100000000000100000000000100000000000000000000000,
200000000000200000000000200000000000000000000000,
100000000000100000000000100000000000100000000000,
200000000000200000000000200000000000000000000000,
100000000000100000000000100000000000000000000000,
9008,
#GOGOEND
#END
COURSE:Easy
LEVEL:3
BALLOON:5
SCOREINIT:900
SCOREDIFF:340
#START
100000000000000000000000100000000000000000000000,
100000000000100000000000000000000000000000000000,
100000000000000000000000100000000000000000000000,
100000000000100000000000000000000000000000000000,
100000000000000000000000100000000000000000000000,
100000000000100000000000000000000000000000000000,
100000000000000000000000100000000000000000000000,
300000000000000000300000000000000000000000000000,
#GOGOSTART
100000000000000000000000100000000000000000000000,
100000000000100000000000100000000000000000000000,
100000000000000000000000100000000000000000000000,
100000000000100000000000100000000000000000000000,
#GOGOEND
100000000000100000000000000000000000000000000000,
100000000000100000000000000000000000100000000000,
100000000000100000000000000000000000000000000000,
100000000000100000000000000000000000100000000000,
100000000000100000000000000000000000000000000000,
100000000000100000000000000000000000100000000000,
100000000000100000000000000000000000000000000000,
500000000000000000000000800000000000000000000000,
100000000000100000000000000000000000000000000000,
100000000000100000000000000000000000200000000000,
100000000000100000000000000000000000000000000000,
100000000000100000000000000000000000200000000000,
100000000000100000000000000000000000000000000000,
100000000000100000000000000000000000200000000000,
100000000000100000000000000000000000000000000000,
100000000000100000000000000000000000200000000000,
300000000000000000000000000000000000000000000000,
100000000000000000000000100000000000100000000000,
100000000000000000000000100000000000100000000000,
100000000000000000000000100000000000100000000000,
300000000000000000000000300000000000000000000000,
300000000000000000000000100000000000100000000000,
100000000000000000000000100000000000100000000000,
100000000000000000000000100000000000100000000000,
300000000000000000000000300000000000000000000000,
300000000000000000000000100000000000000000000000,
100000000000000000000000300000000000000000000000,
#GOGOSTART
100000000000000000000000100000000000000000000000,
100000000000100000000000100000000000000000000000,
100000000000000000000000100000000000000000000000,
100000000000100000000000100000000000000000000000,
100000000000000000000000100000000000000000000000,
200000000000200000000000200000000000000000000000,
100000000000000000000000100000000000100000000000,
9008,
#GOGOEND
#END