317 lines
9.5 KiB
Plaintext
317 lines
9.5 KiB
Plaintext
//TJADB Project
|
|
TITLE:DDU-DU DDU-DU
|
|
TITLEJA:DDU-DU DDU-DU
|
|
SUBTITLE:--BLΛƆKPIИK
|
|
BPM:145.72
|
|
WAVE:DDU-DU DDU-DU.ogg
|
|
OFFSET:-1.834
|
|
DEMOSTART:75.482
|
|
|
|
COURSE:Oni
|
|
LEVEL:7
|
|
SCOREINIT:2870
|
|
SCOREDIFF:0
|
|
|
|
|
|
#START
|
|
|
|
|
|
#SCROLL 0.96074663738
|
|
10111001,
|
|
#BPMCHANGE 140
|
|
#SCROLL 1
|
|
11211000,
|
|
10111001,
|
|
11211440,
|
|
|
|
#GOGOSTART
|
|
3000101020002011,
|
|
11211222,
|
|
3000101020002011,
|
|
11211440,
|
|
3000101020002011,
|
|
11211222,
|
|
3000101020002011,
|
|
11211020,
|
|
|
|
#GOGOEND
|
|
10111121,
|
|
12112120,
|
|
10111121,
|
|
11112120,
|
|
10111121,
|
|
12112120,
|
|
10111121,
|
|
11112120,
|
|
100111211202,
|
|
100112111202,
|
|
100111211202,
|
|
100112111202,
|
|
1010100100202002,
|
|
0010100100202002,
|
|
0010100100202002,
|
|
0010200100104000,
|
|
20002211,
|
|
20000012,
|
|
2001002000101010,
|
|
2002001020001050,
|
|
000000000008000000000000200000200000100000100000,
|
|
20000012,
|
|
2001002000101010,
|
|
2002001020001000,
|
|
1000000010010010,
|
|
1001001020020022,
|
|
1001002010010020,
|
|
11211050,
|
|
000000000008000000000000100000100100000000200000,
|
|
1011002010110020,
|
|
1122112211221122,
|
|
1010201022002200,
|
|
|
|
#GOGOSTART
|
|
3000101020002011,
|
|
11211222,
|
|
3000101020002011,
|
|
1010201022002200,
|
|
3000101020002011,
|
|
11211222,
|
|
3000101020002011,
|
|
11211020,
|
|
|
|
#GOGOEND
|
|
|
|
|
|
#END
|
|
|
|
|
|
COURSE:Hard
|
|
LEVEL:4
|
|
SCOREINIT:4600
|
|
SCOREDIFF:0
|
|
|
|
|
|
#START
|
|
|
|
|
|
#SCROLL 0.96074663738
|
|
100000000000100000000000100000000000000000000000,
|
|
#BPMCHANGE 140
|
|
#SCROLL 1
|
|
100000100000200000100000100000000000000000000000,
|
|
100000000000100000000000100000000000000000000000,
|
|
100000100000200000100000100000000000400000000000,
|
|
|
|
#GOGOSTART
|
|
300000000000100000100000200000000000000000100100,
|
|
100000100000200000100000100000000000200000000000,
|
|
300000000000100000100000200000000000000000100100,
|
|
100000100000200000100000100000000000400000000000,
|
|
300000000000100000100000200000000000000000100100,
|
|
100000100000200000100000100000000000200000000000,
|
|
300000000000100000100000200000000000000000100100,
|
|
100000100000200000100000100000000000200000000000,
|
|
|
|
#GOGOEND
|
|
100000000000100000000000100000000000000000000000,
|
|
100000200000100000100000200000000000000000000000,
|
|
100000000000100000000000100000000000000000000000,
|
|
100000000000100000100000200000000000000000000000,
|
|
100000000000100000000000100000000000000000000000,
|
|
100000200000100000100000200000000000000000000000,
|
|
100000000000100000000000100000000000000000000000,
|
|
100000000000100000100000200000000000000000000000,
|
|
100000000000100010001000100000000000000000000000,
|
|
100000000000100010001000100000000000000000000000,
|
|
100000000000100010001000100000000000000000000000,
|
|
100000000000100010001000100000000000000000000000,
|
|
100000000000100000000100000000000000200000000200,
|
|
000000000000100000000100000000000000200000000200,
|
|
000000000000100000000100000000000000200000000200,
|
|
000000000000100000000100000000000000400000000000,
|
|
200000000000000000000000000000000000000000000000,
|
|
200000000000000000000000000000000000000000000000,
|
|
200000000000000000200000000000000000100000000000,
|
|
200000000000000000000000200000000000200000500000,
|
|
000000000008000000000000000000000000000000000000,
|
|
200000000000000000000000000000000000200000000000,
|
|
200000000000000000200000000000000000100000000000,
|
|
200000000000000000000000200000000000200000000000,
|
|
100000000000000000000000100000000100000000000000,
|
|
100000000100000000000000200000000200000000000000,
|
|
100000000100000000000000100000000100000000000000,
|
|
100000100000200000100000100000000000500000000000,
|
|
000000000008000000000000100000000100000000000000,
|
|
100000000100000000000000100000000100000000000000,
|
|
600000000000000000000000000000000000000000000008,
|
|
000000000000000000000000000000000000000000000000,
|
|
|
|
#GOGOSTART
|
|
300000000000100000100000200000000000000000100100,
|
|
100000100000200000100000100000000000200000000000,
|
|
300000000000100000100000200000000000000000100100,
|
|
100000100000200000100000100000000000200000000000,
|
|
300000000000100000100000200000000000000000100100,
|
|
100000100000200000100000100000000000200000000000,
|
|
300000000000100000100000200000000000000000100100,
|
|
100000100000200000100000100000000000200000000000,
|
|
|
|
#GOGOEND
|
|
|
|
|
|
#END
|
|
|
|
|
|
COURSE:Normal
|
|
LEVEL:2
|
|
SCOREINIT:7780
|
|
SCOREDIFF:0
|
|
|
|
|
|
#START
|
|
|
|
|
|
#SCROLL 0.96074663738
|
|
100000000000000000000000000000000000000000000000,
|
|
#BPMCHANGE 140
|
|
#SCROLL 1
|
|
200000000000200000000000200000000000000000000000,
|
|
100000000000000000000000000000000000000000000000,
|
|
200000000000200000000000200000000000400000000000,
|
|
|
|
#GOGOSTART
|
|
300000000000100000000000200000000000000000000000,
|
|
100000100000100000000000100000000000000000000000,
|
|
300000000000100000000000200000000000000000000000,
|
|
100000100000100000000000100000000000400000000000,
|
|
300000000000100000000000200000000000000000000000,
|
|
100000100000100000000000100000000000000000000000,
|
|
300000000000100000000000200000000000000000000000,
|
|
100000100000100000000000100000000000200000000000,
|
|
|
|
#GOGOEND
|
|
100000000000000000000000100000000000000000000000,
|
|
100000000000100000000000100000000000000000000000,
|
|
100000000000000000000000100000000000000000000000,
|
|
100000000000100000000000100000000000000000000000,
|
|
100000000000000000000000100000000000000000000000,
|
|
100000000000100000000000200000000000000000000000,
|
|
100000000000000000000000100000000000000000000000,
|
|
100000000000100000000000200000000000000000000000,
|
|
100000000000200000000000200000000000000000000000,
|
|
100000000000200000000000200000000000000000000000,
|
|
100000000000200000000000200000000000000000000000,
|
|
100000000000200000000000200000000000000000000000,
|
|
100000000000500000000000000000000000000000000008,
|
|
000000000000500000000000000000000000000000000008,
|
|
000000000000500000000000000000000000000000000008,
|
|
000000000000000000000000000000000000000000000000,
|
|
200000000000000000000000000000000000000000000000,
|
|
200000000000000000000000000000000000000000000000,
|
|
200000000000000000000000000000000000000000000000,
|
|
200000000000000000000000200000000000200000200000,
|
|
200000000000000000000000000000000000000000000000,
|
|
200000000000000000000000000000000000000000000000,
|
|
200000000000000000000000000000000000000000000000,
|
|
200000000000000000000000200000000000200000000000,
|
|
100000000000000000000000100000000000000000000000,
|
|
100000000000000000000000200000000200000000000000,
|
|
100000000000000000000000100000000000000000000000,
|
|
100000000000100000000000100000000000500000000000,
|
|
000000000008000000000000100000000000000000000000,
|
|
100000000000000000000000100000000100000000000000,
|
|
600000000000000000000000000000000000000000000008,
|
|
000000000000000000000000000000000000000000000000,
|
|
|
|
#GOGOSTART
|
|
300000000000100000000000200000000000000000000000,
|
|
100000100000100000000000100000000000000000000000,
|
|
300000000000100000000000200000000000000000000000,
|
|
100000100000100000000000100000000000000000000000,
|
|
300000000000100000000000200000000000000000000000,
|
|
100000100000100000000000100000000000000000000000,
|
|
300000000000100000000000200000000000000000000000,
|
|
100000100000100000000000100000000000200000000000,
|
|
|
|
#GOGOEND
|
|
|
|
|
|
#END
|
|
|
|
|
|
COURSE:Easy
|
|
LEVEL:2
|
|
SCOREINIT:12150
|
|
SCOREDIFF:0
|
|
|
|
|
|
#START
|
|
|
|
|
|
#SCROLL 0.96074663738
|
|
000000000000000000000000000000000000000000000000,
|
|
#BPMCHANGE 140
|
|
#SCROLL 1
|
|
000000000000000000000000000000000000000000000000,
|
|
000000000000000000000000000000000000000000000000,
|
|
000000000000000000000000000000000000000000000000,
|
|
|
|
#GOGOSTART
|
|
300000000000000000000000200000000000000000000000,
|
|
100000000000100000000000100000000000000000000000,
|
|
300000000000000000000000200000000000000000000000,
|
|
100000000000100000000000100000000000000000000000,
|
|
300000000000000000000000200000000000000000000000,
|
|
100000000000100000000000100000000000000000000000,
|
|
300000000000000000000000200000000000000000000000,
|
|
100000000000100000000000100000000000000000000000,
|
|
|
|
#GOGOEND
|
|
100000000000000000000000000000000000000000000000,
|
|
100000000000000000000000100000000000000000000000,
|
|
100000000000000000000000000000000000000000000000,
|
|
100000000000000000000000100000000000000000000000,
|
|
100000000000000000000000000000000000000000000000,
|
|
100000000000000000000000200000000000000000000000,
|
|
100000000000000000000000000000000000000000000000,
|
|
100000000000000000000000200000000000000000000000,
|
|
100000000000000000000000100000000000000000000000,
|
|
100000000000000000000000200000000000000000000000,
|
|
100000000000000000000000100000000000000000000000,
|
|
100000000000000000000000200000000000000000000000,
|
|
100000000000500000000000000000000000000000000008,
|
|
000000000000500000000000000000000000000000000008,
|
|
000000000000500000000000000000000000000000000008,
|
|
000000000000000000000000000000000000000000000000,
|
|
200000000000000000000000000000000000000000000000,
|
|
200000000000000000000000000000000000000000000000,
|
|
200000000000000000000000000000000000000000000000,
|
|
200000000000000000000000200000000000000000000000,
|
|
200000000000000000000000000000000000000000000000,
|
|
200000000000000000000000000000000000000000000000,
|
|
200000000000000000000000000000000000000000000000,
|
|
200000000000000000000000200000000000000000000000,
|
|
100000000000000000000000100000000000000000000000,
|
|
100000000000000000000000000000000000000000000000,
|
|
100000000000000000000000100000000000000000000000,
|
|
100000000000000000000000100000000000500000000000,
|
|
000008000000000000000000100000000000000000000000,
|
|
100000000000000000000000100000000000000000000000,
|
|
600000000000000000000000000000000000000000000008,
|
|
000000000000000000000000000000000000000000000000,
|
|
|
|
#GOGOSTART
|
|
300000000000000000000000200000000000000000000000,
|
|
100000000000100000000000100000000000000000000000,
|
|
300000000000000000000000200000000000000000000000,
|
|
100000000000100000000000100000000000000000000000,
|
|
300000000000000000000000200000000000000000000000,
|
|
100000000000100000000000100000000000000000000000,
|
|
300000000000000000000000200000000000000000000000,
|
|
100000000000100000000000100000000000200000000000,
|
|
|
|
#GOGOEND
|
|
|
|
|
|
#END
|
|
|