Files
ESE/01 Pop/FANTASTIC BABY/FANTASTIC BABY.tja
T
2023-06-15 19:05:10 -05:00

367 lines
4.4 KiB
Plaintext

//TJADB Project
TITLE:FANTASTIC BABY
TITLEJA:FANTASTIC BABY
SUBTITLE:--Big Bang
BPM:130
WAVE:FANTASTIC BABY.ogg
OFFSET:-2.139
DEMOSTART:35.369
COURSE:Oni
LEVEL:7
BALLOON:20
SCOREINIT:490
SCOREDIFF:120
#START
3,
3,
3,
12210220,
30221220,
30221220,
30221220,
12210220,
01221022,
10221212,
01221221,
20120212,
01221022,
10221212,
01220122,
01210100,
10221020,
10221020,
3000002012011020,//19
#GOGOSTART
3000200010201022,
1000200010201022,
1020102210201120,
3000002012011020,
3000200010201022,
1000200010201022,
1020102210201120,
1111102012011020,//27
#GOGOEND
1022102010020020,
1022102010020020,
1022102010221020,
1022102010210020,
1020112010210020,
1020112010210020,
1020112010201120,
1022102010002022,
1020112210221120,
3040304030201122,
1202102211221020,
3040304030201220,
3040304030201220,
3040304030403022,
1122112211221020,
34343040,
1020100010221020,
0020100010221020,
0020100010221020,
02120210,
1020102210221210,
0020102210221210,
0020102210221210,
0020102211201070,
,
8011010110101101,
1011010110000000,
3000002012011020,//55
#GOGOSTART
3000200010201022,
1000200010201022,
1020102210201120,
3000002012011020,
3000200010201022,
1000200010201022,
1020102210201120,
3000002012011020,
1000202010201022,
1000202010201022,
1000202010201022,
1020102210201120,
1000202210201022,
1000202210201022,
1000202210201022,
1111100010004000,
3000002012011020,//72
#GOGOEND
,
#END
COURSE:Hard
LEVEL:5
BALLOON:30
SCOREINIT:470
SCOREDIFF:130
#START
3,
3,
3,
11120220,
3,
3,
3,
11120220,
10201022,
10201122,
01201122,
10210122,
10201022,
10221122,
01220122,
01220200,
10222020,
10222020,
3000002010011020,//19
#GOGOSTART
3000200010201011,
1000200010201011,
10201022,
3000002010011020,
3000200010201011,
1000200010201011,
10201022,
3000002010011020,//27
#GOGOEND
0010201010020000,
0010201010020000,
01211211,
2011102010020000,
0010201010020000,
0010201010020000,
0010201110102000,
10222020,
1010222010102020,
30304022,
1010222010102020,
3000300040002220,
3000300040002220,
3344,
1110111011102020,
3334,
12101212,
02101212,
02101212,
02120210,
1020100011102010,
0020100011102010,
0020100011102010,
02120127,
,
,
8,
3000002010011020,//55
#GOGOSTART
3000200010201011,
1000200010201011,
10201022,
3000002010011020,
3000200010201011,
1000200010201011,
10201022,
3000002010011020,
30221210,
10221210,
10221210,
30201022,
1000202010201011,
1000202010201011,
10221210,
1111100010004000,
3000002010011020,//72
#GOGOEND
,
#END
COURSE:Normal
LEVEL:3
BALLOON:24,6
#START
3,
3,
3,
600000000000000000000000000000000008000000000000,
3,
3,
3,
600000000000000000000000000000000008000000000000,
1011,
1120,
12,
1,
1011,
1120,
12,
1,
1022,
1022,
3,//19
#GOGOSTART
1210,
1210,
500000000000000000000000000000000008000000000000,
3,
1210,
1210,
500000000000000000000000000000000008000000000000,
3,//27
#GOGOEND
1120,
1120,
1122,
1120,
1210,
1210,
1122,
500000000000000000000000000000000008000000000000,
1211,
3340,
1211,
3340,
1112,
1112,
3333,
4440,
1212,
1012,
1012,
1022,
1212,
1012,
1012,
10002029,
,
09,
8,
3,//55
#GOGOSTART
10201011,
1210,
500000000000000000000000000000000008000000000000,
3,
10201011,
1210,
500000000000000000000000000000000008000000000000,
3,
10201100,
10201100,
10201100,
500000000000000000000000000000000008000000000000,
10201200,
10201200,
10201200,
7008,
3,//72
#GOGOEND
,
#END
COURSE:Easy
LEVEL:3
BALLOON:17,3
#START
3,
3,
3,
600000000000000000000000000008000000000000000000,
3,
3,
3,
600000000000000000000000000008000000000000000000,
11,
1111,
11,
1,
11,
1111,
11,
1,
12,
12,
3,//19
#GOGOSTART
1110,
1110,
500000000000000000000000000008000000000000000000,
3,
1110,
1110,
500000000000000000000000000008000000000000000000,
3,//27
#GOGOEND
12,
12,
12,
11,
1022,
1022,
1022,
500000000000000000000000000008000000000000000000,
1110,
2220,
1110,
4440,
1110,
2222,
3333,
4440,
1100,
1100,
1100,
1100,
2200,
2200,
2200,
20200009,
,
09,
8,
3,//55
#GOGOSTART
1110,
1110,
500000000000000000000000000008000000000000000000,
3,
1110,
1110,
500000000000000000000000000008000000000000000000,
3,
1120,
1120,
1120,
500000000000000000000000000008000000000000000000,
1220,
1220,
1220,
70000800,
3,//72
#GOGOEND
,
#END