Files
ESE/01 Pop/FIREWORKS/FIREWORKS.tja
T
2023-06-15 19:00:23 -05:00

288 lines
10 KiB
Plaintext

//TJADB Project
TITLE:FIREWORKS
TITLEJA:FIREWORKS
SUBTITLE:--EXILE/SKY PerfecTV! EXILE TV
BPM:113
WAVE:FIREWORKS.ogg
OFFSET:-4.351
DEMOSTART:69.129
COURSE:Oni
LEVEL:5
BALLOON:20,20,20
SCOREINIT:850
SCOREDIFF:210
#START
000000000000300000000000000000000000300000000000,
200000000100100000000200100000000000000000000000,
300000000000100000000000300000000000100000000000,
100000000000300000000000300000000000100000000000,
300000000000100000000000100000000000100000000000,
300000000200100000100000400000000000000000000000,
#GOGOSTART
100000100000200000100100000100100000200000100000,
100000100000200000100100000100100000200000100000,
500000000000000008000000000000100000100000200000,
100100100000100100200100000000100000200200200000,
100100100000200000100100000100100000200000100000,
100100100000200000100100000100100000200000100000,
500000000000000008000000000000100000000000100000,
700000000000000000000000000000000000000000800000,
#GOGOEND
#MEASURE 2/4
000000000000000000000000,
#MEASURE 4/4
100000000100200000000100100000100000200000000000,
100000000000200000000100100000100000200000000000,
100100100000200000000000100100100000200000000000,
500000000000000000000008000000000000000000000000,
100000000100200000000100100000100000200000000000,
100000000000200000000100100000100000200000000000,
100100100000200000000000100100100000200000000000,
100000100000100100100000100100100000200000000000,
100000000000200000000000000000000000200000000000,
100100100000200000000000100000100000200000000000,
100000000000200000000000100100100000200000000000,
100100100000200000100000100100100000400000400000,
300000000000200000000000100100100000200000000000,
400000100000400000100000400000400000400000000000,
100000100000200000000000100100100000200000000000,
700000000000000000000000000000000000000000800000,
300000000000200000100000100100100000200000000000,
100000000000200000100000100100100000200000100000,
100000100000200000100000100100100000200000100000,
100000000000200000100000100100100000200000100000,
300000000000200000100000100100100000200000000000,
100000000000200000100000100100100000200000100000,
100100100000200000100000100100100000200000100000,
100100100000100100100000300000000000000000000000,
#GOGOSTART
100000100000200000100100000100100000200000100000,
100000100000200000100100000100100100200000100000,
500000000000000008000000000000100000100000100000,
700000000000000000000000000000000000000000800000,
100100100000200000100100000100100000200000100000,
100100100000200000100100000100100100200000100000,
500000000000000000008000000000100000000000300000,
300000300000000000300000000000000000200200200000,
#GOGOEND
#END
COURSE:Hard
LEVEL:5
BALLOON:16,16,16,16
SCOREINIT:970
SCOREDIFF:250
#START
000000000000300000000000000000000000300000000000,
200000000000300000000000300000000000000000000000,
100000000000100000000000100000000000100000000000,
100000000000100000000000100000000000100000000000,
200000000000200000000000200000000000200000000000,
100000000000100000000000400000000000000000000000,
#GOGOSTART
100000000000200000000100000000100000200000000000,
100000000000200000000100000000100000200000000000,
500000000000000000000800000000000000000000000000,
700000000000000000000000000000000000000000800000,
100000100000200000000100000000100000200000000000,
100000100000200000000100000000100000200000000000,
500000000000000000000800000000000000000000000000,
700000000000000000000000000000000000000000800000,
#GOGOEND
#MEASURE 2/4
000000000000000000000000,
#MEASURE 4/4
100000000000200000000100100000100000200000000000,
100000000000200000000000100000100000200000000000,
100000100000200000000000100000100000200000000000,
500000000000000000000800000000000000000000000000,
100000000000200000000100100000100000200000000000,
100000000000200000000000100000100000200000000000,
100000100000200000000000100000100000200000000000,
100000100000100100100000100000100000200000000000,
100000000000200000000000000000000000200000000000,
100000100000200000000000100000000000200000000000,
100000000000200000000000000000000000200000000000,
100100100000200000000000100100100000400000400000,
300000000000200000000000100000100000200000000000,
400000000000400000000000100000100000200000000000,
100000100000200000000000100000100000200000000000,
700000000000000000000000000000000000000000800000,
300000000000200000100000100000100000200000000000,
100000000000200000100000100000100000200000000000,
100000100000200000100000100000100000200000100000,
100000000000200000100000100000100000200000000000,
300000000000200000100000100000100000200000000000,
100000000000200000100000100000100000200000000000,
100000100000200000100000100000100000200000000000,
100000100000100100100000300000000000000000000000,
#GOGOSTART
100000000000200000000100000000100000200000100000,
100000000000200000000100000000100100200000100000,
500000000000000000000800000000000000100000000000,
700000000000000000000000000000000000000000800000,
100100100000200000000100100000100100200000000000,
100100100000200000000100100000100100200000100000,
500000000000000000000800000000100000000000300000,
300000300000000000300000000000000000200200200000,
#END
COURSE:Normal
LEVEL:4
BALLOON:14,14,14,14,14
SCOREINIT:1310
SCOREDIFF:380
#START
000000000000000000000000000000000000000000000000,
000000000000000000000000000000000000000000000000,
100000000000100000000000100000000000000000000000,
100000000000100000000000100000000000000000000000,
200000000000200000000000200000000000000000000000,
100000000000100000000000400000000000000000000000,
#GOGOSTART
100000000000200000000000000000000000200000000000,
100000000000200000000000000000000000200000000000,
500000000000000000800000000000000000000000000000,
700000000000000000000000000000000000800000000000,
100000000000200000000000000000000000200000000000,
100000000000200000000000000000000000200000000000,
500000000000000000800000000000000000000000000000,
700000000000000000000000000000000000800000000000,
#GOGOEND
#MEASURE 2/4
000000000000000000000000,
#MEASURE 4/4
100000000000200000000000100000000000200000000000,
100000000000200000000000000000000000200000000000,
100000000000200000000000100000000000200000000000,
500000000000000000800000000000000000000000000000,
100000000000200000000000100000000000200000000000,
100000000000200000000000000000000000200000000000,
100000000000200000000000100000000000200000000000,
100000100000100000100000000000000000000000000000,
100000000000000000000000200000000000000000000000,
100000100000100000000000100000000000200000000000,
100000000000000000000000200000000000000000000000,
100000100000100000000000100000100000100000000000,
300000000000200000000000100000000000200000000000,
400000000000400000000000400000000000000000000000,
100000000000000000000000100000000000000000000000,
700000000000000000000000000000000000800000000000,
300000000000100000000000100000000000000000000000,
100000000000100000000000100000000000100000000000,
300000000000100000000000100000000000000000000000,
100000000000100000000000100000000000100000000000,
300000000000100000000000100000000000000000000000,
100000000000100000000000100000000000100000000000,
300000000000100000000000100000000000000000000000,
100000000000100000000000300000000000000000000000,
#GOGOSTART
100000000000200000000000100000100000100000000000,
100000000000200000000000100000100000100000000000,
500000000000000000800000000000000000000000000000,
700000000000000000000000000000000000800000000000,
100000000000200000000000100000100000100000000000,
100000000000200000000000100000100000100000000000,
500000000000000000800000000000000000000000000000,
90000008,
#GOGOEND
#END
COURSE:Easy
LEVEL:3
BALLOON:10,10,10,10,10
SCOREINIT:1050
SCOREDIFF:340
#START
000000000000000000000000000000000000000000000000,
000000000000000000000000000000000000000000000000,
100000000000000000000000100000000000000000000000,
100000000000000000000000100000000000000000000000,
200000000000000000000000200000000000000000000000,
100000000000100000000000400000000000000000000000,
#GOGOSTART
100000000000100000000000000000000000100000000000,
100000000000100000000000000000000000100000000000,
500000000000000000800000000000000000000000000000,
700000000000000000000000000000000000800000000000,
100000000000100000000000000000000000100000000000,
100000000000100000000000000000000000100000000000,
500000000000000000800000000000000000000000000000,
700000000000000000000000000000000000800000000000,
#GOGOEND
#MEASURE 2/4
000000000000000000000000,
#MEASURE 4/4
100000000000100000000000100000000000100000000000,
100000000000000000000000000000000000000000000000,
100000000000000000000000100000000000000000000000,
100000000000100000000000100000000000000000000000,
100000000000100000000000100000000000100000000000,
100000000000000000000000000000000000000000000000,
100000000000000000000000100000000000000000000000,
100000000000100000000000100000000000000000000000,
100000000000200000000000000000000000200000000000,
100000000000100000000000100000000000000000000000,
100000000000200000000000000000000000200000000000,
100000000000100000000000100000000000100000000000,
300000000000000000000000100000000000000000000000,
200000000000200000000000200000000000000000000000,
100000000000000000000000100000000000000000000000,
700000000000000000000000000000000000800000000000,
300000000000000000000000100000000000000000000000,
100000000000100000000000100000000000100000000000,
100000000000000000000000100000000000000000000000,
100000000000100000000000100000000000100000000000,
100000000000000000000000100000000000000000000000,
100000000000100000000000100000000000100000000000,
100000000000000000000000100000000000000000000000,
100000000000100000000000300000000000000000000000,
#GOGOSTART
100000000000200000000000000000000000100000000000,
100000000000200000000000000000000000100000000000,
500000000000000000800000000000000000000000000000,
700000000000000000000000000000000000800000000000,
100000000000200000000000000000000000100000000000,
100000000000200000000000000000000000100000000000,
100000000000100000000000100000000000000000000000,
90000008,
#GOGOEND
#END