Files
ESE/01 Pop/GLAMOROUS SKY/GLAMOROUS SKY.tja
T
2023-06-15 19:15:39 -05:00

732 lines
19 KiB
Plaintext

//TJADB Project
TITLE:GLAMOROUS SKY
TITLEJA:GLAMOROUS SKY
SUBTITLE:--Mika Nakashima/NANA
SUBTITLEJA:映画「NANA」主題歌
BPM:151.44
WAVE:GLAMOROUS SKY.ogg
OFFSET:-1.729
DEMOSTART:45.932
COURSE:Oni
LEVEL:5
SCOREINIT:520
SCOREDIFF:70
#START
200000200000200000200000100000200000100000000000,
#BPMCHANGE 151.94
200000200000200000200000100000100000200000000000,
#BPMCHANGE 151.18
200000200000200000200000100000200000100000000000,
#BPMCHANGE 148.19
200000200000200000200000100000100100100000000000,
#BPMCHANGE 147.36
100000200000100000200000100000200000100000200000,
#BPMCHANGE 150
100000100000200000200000100100100100100000200000,
100000000000200000100000000000200000100000000000,
000000100000000000000000100100100100100000000000,
100000200200200000100000200200200000100000000000,
100000200200200000100000200200200200100100100100,
100000000000200000200000100100100000200000200000,
100000000000200000100000000000100100200000000000,
100000000000200000200000100100100000200000200000,
100000100000200000100000000000200200100000000000,
100000000000200000200000100100100000200000200000,
100000200000200000100000000000100100200000000000,
100000200200200000100000200200200000100000000000,
100000200200200000100000200000200000100100100100,
100000000000200000200000100100100000200000200000,
100000000000200000100000000000100100200000000000,
100000000000200000200000100100100000200000200000,
100000100000200000100000000000200200100000000000,
100000000000200000200000100000200200200000100000,
000000000000200000100000100000000000200000000000,
100000100000100100100000100000100100100000100000,
000000100100100000100000000000100100100000000000,
300000000000300000000000300000300000000000300000,
#GOGOSTART
000000200200200000200000100100100100100000100000,
000000300000300000000000200000200200200000200000,
100000000000200000000000100000100100200000000000,
100000000000200000100000000000100100200000000000,
100000200200200000100000000000200200200000100000,
100000000000200000100000000000100100200000000000,
100000000000200000100000000000200000200200200000,
100000000000200000100000000000100000200000000000,
100000200200200000200000100100100100100000100000,
000000300000300000000000200000200200200000200000,
100000000000200000000000100000100100200000000000,
100000000000200000100000000000100100200000000000,
100000200200200000100000000000000000200000100000,
100000000000200000100000000000100000200000000000,
300000000000300000300000000000400000300000000000,
#GOGOEND
300000000000200000000000200000000000200000000000,
200000000000200000000000200000200000200000200000,
100000200000200000100000200200200000100000200000,
100000200000200000100000100100100000200000200000,
100000200000200000100000200200200000100000200000,
100200200000200000100000200200200000200000200000,
100000200000200000100000200200200000100000200000,
100200200000200000100000200200200000200000200000,
500000000000000000000000000000000008000000000000,
300000400000400000300000400000400000100100100100,
100000000000200000200000100100100000200000200000,
100000000000200000100000000000100100200000000000,
100000000000200000200000100100100000200000200000,
100000100000200000100000000000200200100000000000,
100000000000200000200000100100100000200000200000,
100000200000200000100000000000100100200000000000,
100000200200200000100000200200200000100000000000,
100000200200200000100000200000200000100100100100,
100000000000200000200000100100100000200000200000,
100000000000200000100000000000100100200000000000,
100000000000200000200000100100100000200000200000,
100000100000200000100000000000200200100000000000,
100000000000200000200000100000200200200000100000,
000000000000200000100000100000000000200000000000,
100000100000100100100000100000100100100000100000,
000000100100100000100000000000100100100000000000,
300000000000300000000000300000300000000000300000,
#GOGOSTART
000000200200200000200000100100100100100000100000,
000000300000300000000000200000200200200000200000,
100000000000200000000000100000100100200000000000,
100000000000200000100000000000100100200000000000,
100000200200200000100000000000200200200000100000,
100000000000200000100000000000100100200000000000,
100000000000200000100000000000200000200200200000,
100000000000200000100000000000100000200000000000,
100000200200200000200000100100100100100000100000,
000000300000300000000000200000200200200000200000,
100000000000200000000000100000100100200000000000,
100000000000200000100000000000100100200000000000,
100000200200200000100000000000000000200000100000,
100000000000200000100000000000100000200000000000,
300000000000300000300000000000400000300000000000,
#GOGOEND
300000000000400000300000000000400000300000000000,
000000300000000000100000100000100000100000100000,
300000000000400000300000000000400000300000000000,
000000300000000000100000100100100000100000100000,
300000000000400000300000000000400000300000000000,
000000300000000000100000100100100100100000100000,
300000000000400000300000000000400000300000000000,
000000400000000000000000100100100100100100100100,
100000000000000000000000000000000000000000000000,
#END
COURSE:Hard
LEVEL:6
BALLOON:8,8,8,8,8,8
SCOREINIT:540
SCOREDIFF:90
#START
200000000000200000000000100000100000100000000000,
#BPMCHANGE 151.94
200000000000200000000000100000200000100000000000,
#BPMCHANGE 151.18
200000000000200000000000100000100000100000000000,
#BPMCHANGE 148.19
200000000000200000000000100000200000100000000000,
#BPMCHANGE 147.36
100000000000100000000000100000000000100000000000,
#BPMCHANGE 150
100000100000100000100000100100100000100100100000,
500000000000000000000000000000000000000000000000,
000000000000000800000000000000000000000000000000,
100000000000200000100000000000200000100000000000,
000000100000000000000000100100100100100000000000,
#SECTION
#BRANCHSTART p,75,90
#N
10201120,
10210120,
10201120,
10210120,
10201120,
10210120,
10210210,
12212210,
#E
10201120,
10210120,
10201120,
10210120,
10201120,
10210120,
10210210,
1020201020201110,
#M
10201120,
10210120,
10201120,
10210120,
10201120,
10210120,
12212210,
1020201020201110,
#SECTION
#BRANCHSTART p,75,90
#N
10201120,
10210120,
10201120,
10210120,
10202101,
00211020,
10101101,
01120110,
30303303,
#E
10201120,
10210120,
10201120,
10210120,
10202101,
00211020,
1000100010111010,
01120110,
30303303,
#M
10201120,
10210120,
10201120,
10210120,
10202101,
000211020,
1000100010111010,
0011102000111000,
30303303,
#GOGOSTART
#SECTION
#BRANCHSTART p,75,90
#N
00000101,
02202110,
10001120,
10210110,
10210220,
10210110,
10210220,
1,
#E
0022202020100010,
0020200020111010,
10001120,
1000201000111000,
1000201000222000,
1000201000111000,
1000201000222000,
1,
#M
0022202020100010,
0020200020111010,
10201120,
1000201000111020,
1000201000222020,
1000201000111020,
1000201000222020,
1,
#SECTION
#BRANCHSTART p,75,90
#N
00000101,
02202110,
10001120,
10210110,
10210220,
10210110,
30330430,
#GOGOEND
70000008,
,
#E
1022202020100010,
0020200020111010,
10001120,
1000201000111000,
1000201000222000,
1000201000111000,
30330430,
#GOGOEND
70000008,
,
#M
1022202020100010,
0020200020111010,
10201120,
1000201000111020,
1000201000222020,
1000201000111000,
30330430,
#GOGOEND
70000008,
,
#SECTION
#BRANCHSTART p,75,90
#N
1021022,
12011020,
10210220,
12012020,
10210220,
12011020,
500000000000000000000000000000000008000000000000,
30430430,
#E
10210220,
1020001011102000,
10210220,
1020002022202000,
10210220,
1020001011102000,
500000000000000000000000000000000008000000000000,
3000403000401111,
#M
10210220,
1020001010102220,
10210220,
1020002022202000,
10210220,
1020001010102220,
500000000000000000000000000000000008000000000000,
3000403000401111,
#SECTION
#BRANCHSTART p,75,90
#N
10201120,
10210120,
10201120,
10210120,
10201120,
10210120,
10210210,
12212210,
#E
10201120,
10210120,
10201120,
10210120,
10201120,
10210120,
10210210,
1020201020201110,
#M
10201120,
10210120,
10201120,
10210120,
10201120,
10210120,
12212210,
1020201020201110,
#SECTION
#BRANCHSTART p,75,90
#N
10201120,
10210120,
10201120,
10210120,
10202101,
00211020,
10101101,
01120110,
30303303,
#E
10201120,
10210120,
10201120,
10210120,
10202101,
00211020,
1000100010111010,
01120110,
30303303,
#M
10201120,
10210120,
10201120,
10210120,
10202101,
00211020,
1000100010111010,
0011102000111000,
30303303,
#GOGOSTART
#SECTION
#BRANCHSTART p,75,90
#N
00000101,
02202110,
10001120,
10210110,
10210220,
10210110,
10210220,
1,
#E
0022202020100010,
0020200020111010,
10001120,
1000201000111000,
1000201000222000,
1000201000111000,
1000201000222000,
1,
#M
0022202020100010,
0020200020111010,
10201120,
1000201000111020,
1000201000222020,
1000201000111020,
1000201000222020,
1,
#SECTION
#BRANCHSTART p,75,90
#N
00000101,
02202110,
10001120,
10210110,
10210220,
10210110,
30330430,
#GOGOEND
70000008,
,
#E
1022202020100010,
0020200020111010,
10001120,
1000201000111000,
1000201000222000,
1000201000111000,
30330430,
#GOGOEND
70000008,
,
#M
1022202020100010,
0020200020111010,
10201120,
1000201000111020,
1000201000222020,
1000201000111000,
30330430,
#GOGOEND
70000008,
,
#SECTION
#BRANCHSTART p,75,90
#N
30210210,
01011111,
30210210,
0010000011101000,
30210210,
500000000000000000000000000000000000000008000000,
,
#E
30210210,
01011111,
30210210,
0010001011101010,
30210210,
0040000010101111,
1,
#M
30210210,
01011111,
30210210,
0010001011101010,
30210210,
0040000011111111,
1,
#BRANCHEND
#END
COURSE:Normal
LEVEL:4
BALLOON:8,8
SCOREINIT:570
SCOREDIFF:180
#START
000000000000200000000000000000000000200000000000,
#BPMCHANGE 151.94
000000000000200000000000200000000000200000000000,
#BPMCHANGE 151.18
000000000000200000000000000000000000200000000000,
#BPMCHANGE 148.19
000000000000200000000000200000000000200000000000,
#BPMCHANGE 147.36
100000000000000000000000100000000000000000000000,
#BPMCHANGE 150
100000000000100000000000100000000000100000000000,
500000000000000000000000000000000000000000000000,
000000000000800000000000000000000000000000000000,
100000000000000000100000000000000000100000000000,
000000100000000000000000300000000000000000000000,
100000000000200000000000000000000000200000000000,
100000000000200000000000000000000000200000000000,
100000000000200000000000000000000000200000000000,
100000000000100000000000100000000000000000000000,
100000000000200000000000000000000000200000000000,
100000000000200000000000000000000000200000000000,
100000000000000000100000000000000000100000000000,
100000000000000000300000000000000000000000000000,
100000000000200000000000000000000000200000000000,
100000000000200000000000000000000000200000000000,
100000000000200000000000000000000000200000000000,
100000000000100000000000100000000000000000000000,
100000000000200000000000000000000000200000000000,
100000000000200000000000000000000000200000000000,
100000000000100000000000100000100000000000100000,
000000100000100000100000000000000000000000000000,
300000000000300000000000300000300000000000300000,
#GOGOSTART
000000000000000000000000000000100000000000500000,
000000000000000000000000800000000000000000000000,
100000000000000000000000100000000000100000000000,
100000000000000000100000000000000000000000000000,
000000000000000000000000000000000000000000000000,
100000000000000000100000000000000000200000000000,
100000000000000000100000000000000000200000000000,
300000000000000000000000000000000000000000000000,
000000000000000000000000000000100000000000500000,
000000000000000000000000800000000000000000000000,
100000000000000000000000100000000000100000000000,
100000000000000000100000000000000000000000000000,
000000000000000000000000000000000000000000000000,
100000000000000000100000000000000000200000000000,
100000000000000000100000000000000000200000000000,
#GOGOEND
700000000000000000000000000000000000000000800000,
000000000000000000000000000000000000000000000000,
100000000000200000100000000000000000200000000000,
100000200000000000000000000000000000100000000000,
100000000000200000100000000000000000200000000000,
200000100000000000000000200000000000200000000000,
100000000000200000100000000000000000200000000000,
100000200000000000000000000000000000100000000000,
500000000000000000000000000000800000000000000000,
300000000000300000300000000000300000300000000000,
100000000000200000000000000000000000200000000000,
100000000000200000000000000000000000200000000000,
100000000000200000000000000000000000200000000000,
100000000000100000000000100000000000000000000000,
100000000000200000000000000000000000200000000000,
100000000000200000000000000000000000200000000000,
100000000000000000100000000000000000100000000000,
100000000000000000300000000000000000000000000000,
100000000000200000000000000000000000200000000000,
100000000000200000000000000000000000200000000000,
100000000000200000000000000000000000200000000000,
100000000000100000000000100000000000000000000000,
100000000000200000000000000000000000200000000000,
100000000000200000000000000000000000200000000000,
100000000000100000000000100000100000000000100000,
000000100000100000100000000000000000000000000000,
300000000000300000000000300000300000000000300000,
#GOGOSTART
000000000000000000000000000000100000000000500000,
000000000000000000000000800000000000000000000000,
100000000000000000000000100000000000100000000000,
100000000000000000100000000000000000000000000000,
000000000000000000000000000000000000000000000000,
100000000000000000100000000000000000200000000000,
100000000000000000100000000000000000200000000000,
300000000000000000000000000000000000000000000000,
000000000000000000000000000000100000000000500000,
000000000000000000000000800000000000000000000000,
100000000000000000000000100000000000100000000000,
100000000000000000100000000000000000000000000000,
000000000000000000000000000000000000000000000000,
100000000000000000100000000000000000200000000000,
100000000000000000100000000000000000200000000000,
#GOGOEND
700000000000000000000000000000000000000000800000,
000000000000000000000000000000000000000000000000,
100000000000000000100000000000000000100000000000,
000000100000000000000000100000000000100000000000,
500000000000000000000000000000000000000000000000,
000000000000000000800000000000000000000000000000,
100000000000000000100000000000000000100000000000,
500000000000000000000000800000000000000000000000,
300000000000000000000000000000000000000000000000,
#END
COURSE:Easy
LEVEL:4
BALLOON:6,6,6
SCOREINIT:480
SCOREDIFF:140
#START
000000000000000000000000200000000000200000000000,
#BPMCHANGE 151.94
000000000000200000000000000000000000200000000000,
#BPMCHANGE 151.18
000000000000000000000000200000000000200000000000,
#BPMCHANGE 148.19
000000000000200000000000000000000000200000000000,
#BPMCHANGE 147.36
100000000000000000000000100000000000000000000000,
#BPMCHANGE 150
100000000000100000000000100000000000000000000000,
500000000000000000000000000000000000000000000000,
000000000000800000000000000000000000000000000000,
100000000000000000100000000000000000100000000000,
000000100000000000000000300000000000000000000000,
100000000000200000000000000000000000000000000000,
100000000000200000000000000000000000000000000000,
100000000000200000000000000000000000000000000000,
100000000000100000000000100000000000000000000000,
100000000000200000000000000000000000000000000000,
100000000000200000000000000000000000000000000000,
100000000000000000100000000000000000100000000000,
100000000000000000300000000000000000000000000000,
100000000000200000000000000000000000000000000000,
100000000000200000000000000000000000000000000000,
100000000000200000000000000000000000000000000000,
100000000000100000000000100000000000000000000000,
100000000000200000000000000000000000000000000000,
100000000000200000000000000000000000000000000000,
100000000000100000000000100000000000000000100000,
000000000000000000000000000000000000000000000000,
300000000000300000000000300000000000000000300000,
#GOGOSTART
000000000000000000000000000000100000000000500000,
000000000000000000000000800000000000000000000000,
100000000000000000000000100000000000100000000000,
100000000000000000100000000000000000000000000000,
000000000000000000000000000000000000000000000000,
100000000000000000100000000000000000100000000000,
100000000000000000100000000000000000000000000000,
300000000000000000000000000000000000000000000000,
000000000000000000000000000000100000000000500000,
000000000000000000000000800000000000000000000000,
100000000000000000000000100000000000100000000000,
100000000000000000100000000000000000000000000000,
000000000000000000000000000000000000000000000000,
100000000000000000100000000000000000100000000000,
100000000000000000100000000000000000100000000000,
#GOGOEND
700000000000000000000000000000000000000000800000,
000000000000000000000000000000000000000000000000,
100000000000200000000000100000000000200000000000,
100000000000000000000000100000000000000000000000,
100000000000200000000000100000000000200000000000,
100000000000100000000000100000000000000000000000,
100000000000200000000000100000000000200000000000,
100000000000000000000000100000000000000000000000,
500000000000000000000000000000800000000000000000,
300000000000000000300000000000000000000000000000,
100000000000200000000000000000000000000000000000,
100000000000200000000000000000000000000000000000,
100000000000200000000000000000000000000000000000,
100000000000100000000000100000000000000000000000,
100000000000200000000000000000000000000000000000,
100000000000200000000000000000000000000000000000,
100000000000000000100000000000000000100000000000,
100000000000000000300000000000000000000000000000,
100000000000200000000000000000000000000000000000,
100000000000200000000000000000000000000000000000,
100000000000200000000000000000000000000000000000,
100000000000100000000000100000000000000000000000,
100000000000200000000000000000000000000000000000,
100000000000200000000000000000000000000000000000,
100000000000100000000000100000000000000000100000,
000000000000000000000000000000000000000000000000,
300000000000300000000000300000000000000000300000,
#GOGOSTART
000000000000000000000000000000100000000000500000,
000000000000000000000000800000000000000000000000,
100000000000000000000000100000000000100000000000,
100000000000000000100000000000000000000000000000,
000000000000000000000000000000000000000000000000,
100000000000000000100000000000000000100000000000,
100000000000000000100000000000000000000000000000,
300000000000000000000000000000000000000000000000,
000000000000000000000000000000100000000000500000,
000000000000000000000000800000000000000000000000,
100000000000000000000000100000000000100000000000,
100000000000000000100000000000000000000000000000,
000000000000000000000000000000000000000000000000,
100000000000000000100000000000000000100000000000,
100000000000000000100000000000000000100000000000,
#GOGOEND
700000000000000000000000000000000000000000800000,
000000000000000000000000000000000000000000000000,
100000000000000000100000000000000000100000000000,
000000100000000000000000100000000000100000000000,
500000000000000000000000000000000000000000000000,
000000000000000000800000000000000000000000000000,
100000000000000000100000000000000000100000000000,
900000000000000000000000000000000000000000000008,
#END