Files
ESE/01 Pop/GOODBYE Natsuo/GOODBYE Natsuo.tja
T
2023-06-15 19:05:10 -05:00

331 lines
14 KiB
Plaintext

//TJADB Project
TITLE:GOODBYE Natsuo
TITLEJA:GOOD BYE 夏男
SUBTITLE:--Aya Matsuura
BPM:159
WAVE:GOODBYE Natsuo.ogg
OFFSET:-4.560
DEMOSTART:16.635
COURSE:Oni
LEVEL:8
BALLOON:10
#START
300000000000000000000000000000000000000000000000,
100000000000000000000000000000000000000000000000,
100000000000000000000000000000000000000000000000,
100000000000000000000000000000000000000000000000,
100000000000000000000000100000000000000000000000,
100000000000000000000000100000000000000000000000,
100000000000100000000000100000000000100000000000,
100000100000100000100000100000100000300000000000,
100000100100100000200000000000100000200000100000,
100000100100100000200000000000100000200000100000,
000000000000000000000000000000100000000000200000,
100000100100100000100000000000200000200000200000,
100000100100100000200000000000100000000000100000,
100000100100100000200000000000100000200000100000,
000000000000000000300000000000000000000000300000,
000000000000000000300000000000100000100000100000,
500000000000000000000000000000000008000000000000,
100000100000100000100000100100100000100100100000,
100000000000100000100000000000100000000000100000,
000000100000000000100000200000000000200000000000,
100000000000200000100000000000200000100000000000,
200000100000000000200000200000100000100000200000,
100000000000100000100000000000100000000000100000,
000000100000000000100000200000000000200000000000,
100000000000200000100000000000200000100000000000,
200000002000000020000000200000002000000020000000,
100000100100100000200000000000100000100000100000,
000000100000200000200000100000200000200000100000,
000000200000100000200000000000200000100000200000,
000000200000100000200000100000200000100000000000,
100000100100100000200000000000100000200000200000,
100000100000000000100000200000200000100000100000,
500000000000000000000000000000000008000000000000,
000000200000100000200000100000200000100000000000,
100000100000100000100100100000200200200000000000,
100000100000100000100100100000200200200000000000,
100000100000000000100000100000000000100000000000,
000000200000000000200000000000200000000000200000,
100000100000100000100100100000200200200000000000,
100000100000100000100100100000200200200000000000,
100000100000000000100000100000000000100000000000,
500000000008000000100000500000000008000000100000,
100000000000100000000000100000000000100000000000,
100000100100200000200000000000100000200000100000,
100000100100200000200000000000100000200000100000,
000000000000000000000000000000100000000000200000,
100000100100200000200000000000200000200000200000,
100000100100200000200000000000100000000000100000,
100000100100200000200000000000100000200000100000,
000000000000000000100000000000000000000000100000,
000000000000000000100000000000100000100000100000,
500000000000000000000000000000000008000000000000,
700000000000000000000000000000000000800000000000,
#MEASURE 4/4
#BPMCHANGE 318
100000000000100000100000100000000000200000200000,
200000000000100000000000200000000000100000000000,
100000000000100000100000100000000000200000200000,
200000000000100000000000200000000000100000000000,
100000000000100000100000100000000000200000200000,
200000000000100000000000000000000000200000000000,
100000000000100000100000100000000000200000000000,
000000000000200000200000200000200000200000000000,
100000000000100000100000100000000000200000200000,
200000000000100000000000000000000000100000000000,
100000000000100000100000100000000000200000200000,
200000000000100000000000200000000000100000000000,
000000000000200000200000200000000000300000000000,
000000000000200000200000200000000000300000000000,
000000000000200000200000200000000000300000000000,
000000000000100000100000100000100000100000000000,
500000000000000000000000000000000000000000000000,
000000000000000000000008000000000000000000000000,
100000100000100000100000100000100000100000100000,
100000000000100000000000100000100000100000000000,
#END
COURSE:Hard
LEVEL:3
BALLOON:10,10
SCOREINIT:760
SCOREDIFF:190
#START
100000000000000000000000000000000000000000000000,
100000000000000000000000000000000000000000000000,
100000000000000000000000000000000000000000000000,
100000000000000000000000000000000000000000000000,
100000000000000000000000100000000000000000000000,
100000000000000000000000100000000000000000000000,
100000000000100000000000100000000000100000000000,
100000100000100000000000100000100000300000000000,
100000100000100000000000000000200000000000200000,
100000100000100000100000000000200000200000200000,
000000000000000000000000000000200000000000200000,
100000000000100000100000000000000000000000000000,
100000100000100000000000000000200000000000200000,
100000100000100000100000000000200000200000200000,
000000000000000000100000000000000000000000100000,
000000000000000000100000000000100000100000100000,
500000000000000000000000000000000000000000800000,
000000000000000000000000000000000000000000000000,
100000000000100000100000000000100000000000100000,
000000100000000000100000000000000000000000000000,
100000000000100000200000000000100000200000000000,
100000200000000000100000200000000000000000000000,
100000000000100000100000000000100000000000100000,
000000100000000000100000000000000000000000000000,
100000000000100000200000000000100000200000000000,
300000000000000000000000300000000000000000000000,
100000000000200000000000100000100000200000000000,
100000100000200000000000100000000000200000000000,
000000100000100000200000000000100000100000200000,
000000100000100000100000100000100000200000000000,
100000000000200000000000100000100000200000000000,
100000100000200000000000100000000000200000000000,
000000100000100000200000000000100000100000200000,
000000100000100000100000100000100000200000000000,
100000100000100000100100100000200200200000000000,
100000100000100000100100100000200200200000000000,
100000100000200000000000100000100000200000000000,
100000100000200000000000100000100000200000000000,
100000100000100000100100100000200200200000000000,
100000100000100000100100100000200200200000000000,
100000100000200000000000100000100000200000000000,
500000800000000000100000500000800000000000100000,
100000000000100000000000100000000000100000000000,
100000100000100000000000000000200000000000200000,
100000100000100000100000000000200000200000200000,
000000000000000000000000000000200000000000200000,
100000000000100000100000000000000000000000000000,
100000100000100000000000000000200000000000200000,
100000100000100000100000000000200000200000200000,
000000000000000000100000000000000000000000100000,
000000000000000000100000000000100000100000100000,
500000000000000000000000000000800000000000000000,
700000000000000000000000000000800000000000000000,
100000100000100000000000000000200000000000200000,
100000100100100000100000000000200000200000200000,
000000000000000000000000000000200000000000200000,
100000100100100000100000000000000000000000000000,
100000100000100000000000000000200000000000200000,
100000100100100000100000000000200000200000200000,
000000000000000000100000000000000000000000100000,
000000000000000000100000000000100000100000100000,
500000000000000000000000000000800000000000000000,
700000000000000000000000000000000000000000000008,
#END
COURSE:Normal
LEVEL:4
BALLOON:8,10
SCOREINIT:1060
SCOREDIFF:300
#START
100000000000000000000000000000000000000000000000,
100000000000000000000000000000000000000000000000,
100000000000000000000000000000000000000000000000,
100000000000000000000000000000000000000000000000,
100000000000000000000000100000000000000000000000,
100000000000000000000000100000000000000000000000,
100000000000000000000000100000000000000000000000,
100000000000100000000000300000000000000000000000,
100000000000100000000000000000200000200000000000,
100000000000100000000000000000200000200000000000,
100000000000100000000000000000200000200000000000,
100000000000100000100000000000000000000000000000,
100000000000100000000000000000200000200000000000,
100000000000100000000000000000000000000000200000,
000000000000000000100000000000000000000000100000,
000000000000000000100000000000100000000000500000,
000000000000000000000000000000000000000000800000,
000000000000000000000000000000000000000000000000,
100000000000000000000000200000000000000000000000,
100000000000200000000000200000000000000000000000,
100000000000000000000000200000000000000000000000,
100000000000200000000000200000000000000000000000,
100000000000000000000000200000000000000000000000,
100000000000200000000000200000000000000000000000,
100000000000000000000000200000000000000000000000,
300000000000000000000000300000000000000000000000,
100000000000100000000000000000100000000000100000,
000000000000000000000000200000000000200000000000,
100000000000000000000000100000000000000000000000,
100000000000100000000000100000000000000000000000,
100000000000100000000000000000100000000000100000,
100000000000000000000000200000000000200000000000,
100000000000000000000000100000000000000000000000,
100000000000100000000000100000000000000000000000,
100000100000100000000000100000000000000000000000,
100000100000100000000000100000000000000000000000,
100000100000100000000000100000000000000000000000,
100000100000100000000000100000000000000000000000,
100000100000100000000000200000000000000000000000,
100000100000100000000000200000000000000000000000,
100000100000100000000000200000000000200000000000,
500000800000000000000000500000800000000000000000,
100000000000100000000000100000000000100000000000,
100000000000100000000000000000200000200000000000,
100000000000100000000000000000200000200000000000,
100000000000100000000000000000200000200000000000,
100000000000100000000000000000200000200000000000,
100000000000100000000000000000200000200000000000,
100000000000100000000000000000000000000000200000,
000000000000000000100000000000000000000000100000,
000000000000000000100000000000100000000000500000,
000000000000000000000000000000000000800000000000,
700000000000000000000000000000800000000000000000,
100000100000100000000000000000200000200000000000,
100000100000100000000000000000200000200000000000,
100000100000100000000000000000200000200000000000,
100000100000100000000000000000200000200000000000,
100000100000100000000000000000200000200000000000,
100000100000100000000000000000000000000000200000,
000000000000000000100000000000000000000000100000,
000000000000000000100000000000100000000000500000,
000000000000000000000000000000000000000008000000,
700000000000000000000000000000000000000000000008,
#END
COURSE:Easy
LEVEL:4
BALLOON:10
SCOREINIT:1200
SCOREDIFF:420
#START
100000000000000000000000000000000000000000000000,
100000000000000000000000000000000000000000000000,
100000000000000000000000000000000000000000000000,
100000000000000000000000000000000000000000000000,
100000000000000000000000100000000000000000000000,
100000000000000000000000100000000000000000000000,
100000000000000000000000100000000000000000000000,
100000000000000000000000100000000000000000000000,
100000000000100000000000000000000000000000000000,
100000000000100000000000000000000000000000000000,
100000000000100000000000000000000000000000000000,
100000000000100000000000000000000000000000000000,
100000000000200000000000000000000000000000000000,
100000000000200000000000000000000000000000100000,
000000000000000000100000000000000000000000100000,
000000000000000000100000000000000000100000000000,
500000000000000000000000000000000000000000800000,
000000000000000000000000000000000000000000000000,
100000000000100000000000200000000000000000000000,
100000000000000000000000100000000000000000000000,
100000000000100000000000200000000000000000000000,
100000000000000000000000100000000000000000000000,
100000000000100000000000200000000000000000000000,
100000000000000000000000100000000000000000000000,
100000000000100000000000200000000000000000000000,
200000000000000000000000200000000000000000000000,
100000000000100000000000000000000000000000000000,
100000000000000000000000100000000000000000000000,
200000000000000000000000100000000000000000000000,
100000000000100000000000100000000000000000000000,
100000000000100000000000000000000000000000000000,
100000000000000000000000100000000000000000000000,
200000000000000000000000100000000000000000000000,
100000000000100000000000100000000000000000000000,
100000000000100000000000200000000000000000000000,
100000000000100000000000200000000000000000000000,
100000000000100000000000100000000000000000000000,
100000000000100000000000100000000000000000000000,
100000000000100000000000200000000000000000000000,
100000000000100000000000200000000000000000000000,
100000000000100000000000100000000000000000000000,
500000000000000000000000000000800000000000000000,
100000000000100000000000100000000000000000000000,
100000000000100000000000000000000000000000000000,
100000000000100000000000000000000000000000000000,
100000000000100000000000000000000000000000000000,
100000000000100000000000000000000000000000000000,
100000000000200000000000000000000000000000000000,
100000000000200000000000000000000000000000100000,
000000000000000000100000000000000000000000100000,
000000000000000000100000000000000000100000000000,
500000000000000000000000000000800000000000000000,
500000000000000000000000000000800000000000000000,
100000000000100000000000000000000000000000000000,
100000000000100000000000000000000000000000000000,
100000000000100000000000000000000000000000000000,
100000000000100000000000000000000000000000000000,
100000000000200000000000000000000000000000000000,
100000000000200000000000000000000000000000100000,
000000000000000000100000000000000000000000100000,
000000000000000000100000000000000000100000000000,
500000000000000000000000000000000008000000000000,
700000000000000000000000000000000000000000000008,
#END