399 lines
11 KiB
Plaintext
399 lines
11 KiB
Plaintext
//TJADB Project
|
|
TITLE:Glass no Shounen
|
|
TITLEJA:硝子の少年
|
|
SUBTITLE:--KinKi Kids
|
|
BPM:123
|
|
WAVE:Glass no Shounen.ogg
|
|
OFFSET:-2.398
|
|
DEMOSTART:47.265
|
|
|
|
COURSE:Oni
|
|
LEVEL:8
|
|
BALLOON:23,23,23
|
|
|
|
|
|
#START
|
|
|
|
|
|
1000100010010010,
|
|
1000100010010010,
|
|
1000100010221000,
|
|
1020120210210212,
|
|
1020120210210210,
|
|
1020120210210212,
|
|
1000200030030030,
|
|
|
|
#SECTION
|
|
#BRANCHSTART p,75,90
|
|
#N
|
|
1001002010010020,
|
|
1001002010010000,
|
|
1001002010010020,
|
|
1001001010000000,
|
|
1001002010010020,
|
|
1001002010010000,
|
|
1001002010101010,
|
|
1,
|
|
|
|
#E
|
|
1021002010210020,
|
|
1021002010110010,
|
|
1021002010210020,
|
|
1021002030030030,
|
|
1021002010210020,
|
|
1021002010110010,
|
|
1021002010102020,
|
|
1,
|
|
|
|
#M
|
|
1021012010210120,
|
|
1021012010112210,
|
|
1021012010210120,
|
|
1021012030030030,
|
|
1021012010210120,
|
|
1021012010112210,
|
|
1021012010102020,
|
|
1,
|
|
|
|
#SECTION
|
|
#BRANCHSTART p,75,90
|
|
#N
|
|
1010110010110000,
|
|
1010110010110000,
|
|
1020102010110000,
|
|
1010110010110010,
|
|
1010110010110010,
|
|
1010110010110010,
|
|
500000000000000000000000000000000008000000000000,
|
|
3,
|
|
|
|
#E
|
|
1020120210210000,
|
|
1020120210210000,
|
|
1020120210210000,
|
|
1020120210110010,
|
|
1020120210110010,
|
|
1020120210110010,
|
|
1020120210110110,
|
|
3,
|
|
|
|
#M
|
|
1020120210210210,
|
|
1020120210212210,
|
|
1020120210210210,
|
|
1020120210212210,
|
|
1020120210210210,
|
|
1020120210212210,
|
|
1020120210210210,
|
|
3,
|
|
|
|
#SECTION
|
|
#BRANCHSTART p,75,90
|
|
#N
|
|
1010110010110000,
|
|
1010110010110000,
|
|
1020102010110000,
|
|
1010110010110010,
|
|
1010110010110010,
|
|
1010110010110010,
|
|
1000100010010020,
|
|
1300,
|
|
11201120,
|
|
1010201110102000,
|
|
11201120,
|
|
1010201110102000,
|
|
1011002010110020,
|
|
1011002010200011,
|
|
1,
|
|
43,
|
|
33,
|
|
|
|
#E
|
|
1020120210002222,
|
|
1020120210210000,
|
|
1020120210002222,
|
|
1020120210210010,
|
|
1020120210210010,
|
|
1020120210210010,
|
|
1020120210110110,
|
|
1000300010010010,
|
|
1001001100112000,
|
|
2002002210010020,
|
|
1000101100221022,
|
|
1000202210010020,
|
|
1021002010210020,
|
|
1021002010200022,
|
|
1,
|
|
43,
|
|
33,
|
|
|
|
#M
|
|
1020120210002212,
|
|
1020120210212210,
|
|
1020120210002212,
|
|
1020120210212210,
|
|
1020120210210210,
|
|
1020120210212210,
|
|
1020120210210210,
|
|
1000300010010010,
|
|
1001001100112211,
|
|
2002002210010020,
|
|
1000101100221122,
|
|
1000202210010020,
|
|
1021012010210120,
|
|
1021012010200022,
|
|
1,
|
|
43,
|
|
33,
|
|
|
|
#GOGOSTART
|
|
#SECTION
|
|
#BRANCHSTART p,75,90
|
|
#N
|
|
1010111010102000,
|
|
1010111010222000,
|
|
1010111010102000,
|
|
1010100030030030,
|
|
1010111010102000,
|
|
1010111010000011,
|
|
1000001110000011,
|
|
1333,
|
|
7,
|
|
000000000000000000000000000000000000000000000008,
|
|
|
|
#E
|
|
1020121010110110,
|
|
1020121020220000,
|
|
1020121010110110,
|
|
1020121030030030,
|
|
1020121010110110,
|
|
1020121020220011,
|
|
1022201110222011,
|
|
1333,
|
|
9,
|
|
000000000000000000000000000000000000000000000008,
|
|
|
|
#M
|
|
1021121010210210,
|
|
1021121020220000,
|
|
1021121010210210,
|
|
1021121030030030,
|
|
1021121010210210,
|
|
1021121020220011,
|
|
1022101110221011,
|
|
1333,
|
|
9,
|
|
000000000000000000000000000000000000000000000008,
|
|
|
|
#BRANCHEND
|
|
#GOGOEND
|
|
|
|
|
|
#END
|
|
|
|
|
|
COURSE:Hard
|
|
LEVEL:5
|
|
BALLOON:21
|
|
SCOREINIT:770
|
|
SCOREDIFF:190
|
|
|
|
|
|
#START
|
|
|
|
|
|
100000000000100000000000100000000100000000100000,
|
|
100000000000100000000000100000000100000000000000,
|
|
100000000000100000000000100000200200100000000000,
|
|
100000200000100100000000100000100100000100100000,
|
|
100000200000100100000000100000100100000000000000,
|
|
100000200000100100000000100000100100000100100000,
|
|
100000000000000000000000300000000300000000300000,
|
|
100000000100000000200000100000000100000000200000,
|
|
100000000100000000200000100000000100000000000000,
|
|
100000000100000000200000100000000100000000200000,
|
|
100000000100000000100000100000000000000000000000,
|
|
100000000100000000200000100000000100000000200000,
|
|
100000000100000000200000100000000100000000000000,
|
|
100000000100000000200000100000100000100000100000,
|
|
100000000000000000000000000000000000000000000000,
|
|
100000100000100100000000100000100100000000000000,
|
|
100000100000100100000000100000100100000000000000,
|
|
100000200000100000200000100000100100000000000000,
|
|
100000100000100100000000100000100100000000100000,
|
|
100000100000100100000000100000100100000000100000,
|
|
100000100000100100000000100000100100000000100000,
|
|
500000000000000000000000000000000008000000000000,
|
|
300000000000000000000000000000000000000000000000,
|
|
100000100000100100000000100000100100000000000000,
|
|
100000100000100100000000100000100100000000000000,
|
|
100000200000100000200000100000100100000000000000,
|
|
100000100000100100000000100000100100000000100000,
|
|
100000100000100100000000100000100100000000100000,
|
|
100000100000100100000000100000100100000000100000,
|
|
100000000000100000000000100000000100000000200000,
|
|
100000000000300000000000000000000000000000000000,
|
|
100000100000200000000000100000100000200000000000,
|
|
100000100000200000100100100000100000200000000000,
|
|
100000100000200000000000100000100000200000000000,
|
|
100000100000200000100100100000100000200000000000,
|
|
100000100100000000200000100000100100000000200000,
|
|
100000100100000000200000100000200000000000100100,
|
|
100000000000000000000000000000000000000000000000,
|
|
400000000000000000000000300000000000000000000000,
|
|
300000000000000000000000300000000000000000000000,
|
|
|
|
#GOGOSTART
|
|
100000100000100100100000100000100000200000000000,
|
|
100000100000100100100000100000200200200000000000,
|
|
100000100000100100100000100000100000200000000000,
|
|
100000100000100000000000300000000300000000300000,
|
|
100000100000100100100000100000100000200000000000,
|
|
100000100000100100100000100000200200200000000000,
|
|
000000100100100000000000000000200200200000000000,
|
|
000000000000300000000000300000000000300000000000,
|
|
700000000000000000000000000000000000000000000000,
|
|
000000000000000000000000000000000000000000000008,
|
|
|
|
#GOGOEND
|
|
|
|
|
|
#END
|
|
|
|
|
|
COURSE:Normal
|
|
LEVEL:4
|
|
BALLOON:18
|
|
SCOREINIT:1080
|
|
SCOREDIFF:340
|
|
|
|
|
|
#START
|
|
|
|
|
|
000000000000000000000000000000000000000000000000,
|
|
000000000000000000000000000000000000000000000000,
|
|
000000000000000000000000000000000000000000000000,
|
|
100000000000100000000000100000000100000000000000,
|
|
100000000000100000000000100000000100000000000000,
|
|
100000000000100000000000100000000100000000000000,
|
|
100000000000300000000000000000000000000000000000,
|
|
100000000100000000000000200000000000000000000000,
|
|
100000000100000000000000200000000000000000000000,
|
|
100000000100000000000000100000000100000000000000,
|
|
100000000100000000000000100000000000000000000000,
|
|
100000000100000000000000200000000000000000000000,
|
|
100000000100000000000000200000000000000000000000,
|
|
100000000100000000000000100000000000100000000000,
|
|
100000000000000000000000000000000000000000000000,
|
|
100000100000100000000000100000000100000000000000,
|
|
000000000000100000000000100000000000000000000000,
|
|
100000100000100000000000100000000100000000000000,
|
|
000000000000000000000000100000000100000000000000,
|
|
100000000000000000000000100000000100000000000000,
|
|
200000000000000000000000100000000100000000000000,
|
|
500000000000000000000000000000000800000000000000,
|
|
300000000000000000000000000000000000000000000000,
|
|
100000100000100000000000100000000100000000000000,
|
|
000000000000100000000000100000000000000000000000,
|
|
100000100000100000000000100000000100000000000000,
|
|
000000000000000000000000100000000100000000000000,
|
|
100000000000000000000000100000000100000000000000,
|
|
200000000000000000000000100000000100000000000000,
|
|
500000000000000000000000000000000800000000000000,
|
|
100000000000300000000000000000000000000000000000,
|
|
100000100000200000000000100000100000200000000000,
|
|
200000000200000000200000200000000000000000000000,
|
|
100000100000200000000000100000100000200000000000,
|
|
200000000200000000200000200000000000000000000000,
|
|
100000000100000000000000100000000100000000000000,
|
|
100000000100000000000000100000100000000000000000,
|
|
500000000000000000000000000000000800000000000000,
|
|
400000000000000000000000300000000000000000000000,
|
|
300000000000000000000000300000000000000000000000,
|
|
#GOGOSTART
|
|
100000100000100000000000100000100000100000000000,
|
|
100000000000100000000100000000000000000000000000,
|
|
100000100000100000000000100000100000100000000000,
|
|
100000000000100000000100000000000000000000000000,
|
|
100000100000100000000000100000100000100000000000,
|
|
100000000000100000000100000000000000000000000000,
|
|
000000200000200000000000000000200000200000000000,
|
|
000000000000300000000000300000000000300000000000,
|
|
700000000000000000000000000000000000000000000000,
|
|
000000000000000000000000000000000000000000000800,
|
|
#GOGOEND
|
|
|
|
|
|
#END
|
|
|
|
|
|
COURSE:Easy
|
|
LEVEL:3
|
|
BALLOON:16
|
|
SCOREINIT:840
|
|
SCOREDIFF:330
|
|
|
|
|
|
#START
|
|
|
|
|
|
000000000000000000000000000000000000000000000000,
|
|
000000000000000000000000000000000000000000000000,
|
|
000000000000000000000000000000000000000000000000,
|
|
100000000000100000000000100000000000000000000000,
|
|
200000000000200000000000200000000000000000000000,
|
|
100000000000100000000000100000000000100000000000,
|
|
100000000000000000000000000000000000000000000000,
|
|
100000000000000000000000200000000000000000000000,
|
|
100000000000000000000000200000000000000000000000,
|
|
100000000000100000000000200000000000100000000000,
|
|
100000000000000000000000300000000000000000000000,
|
|
100000000000000000000000200000000000000000000000,
|
|
100000000000000000000000200000000000000000000000,
|
|
100000000000100000000000200000000000100000000000,
|
|
100000000000000000000000000000000000000000000000,
|
|
100000000000100000000000200000000000000000000000,
|
|
000000000000100000000000100000000000000000000000,
|
|
100000000000100000000000200000000000000000000000,
|
|
000000000000000000000000100000000000000000000000,
|
|
300000000000000000000000100000000000000000000000,
|
|
400000000000000000000000100000000000000000000000,
|
|
500000000000000000000000000000800000000000000000,
|
|
300000000000000000000000000000000000000000000000,
|
|
100000000000100000000000200000000000000000000000,
|
|
000000000000100000000000100000000000000000000000,
|
|
100000000000100000000000200000000000000000000000,
|
|
000000000000000000000000100000000000000000100000,
|
|
100000000000000000000000100000000000000000200000,
|
|
200000000000000000000000100000000000000000000000,
|
|
500000000000000000000000000000800000000000000000,
|
|
300000000000000000000000000000000000000000000000,
|
|
100000000000200000000000000000000000200000000000,
|
|
100000000000000000000000100000000000000000000000,
|
|
100000000000200000000000000000000000200000000000,
|
|
100000000000000000000000100000000000000000000000,
|
|
100000000000200000000000100000000000200000000000,
|
|
100000000000200000000000100000000000000000000000,
|
|
500000000000000000000000800000000000000000000000,
|
|
400000000000000000000000300000000000000000000000,
|
|
300000000000000000000000300000000000000000000000,
|
|
|
|
#GOGOSTART
|
|
100000000000100000000000100000000000100000000000,
|
|
100000000000100000000000200000000000000000000000,
|
|
100000000000100000000000100000000000100000000000,
|
|
100000000000200000000000100000000000000000000000,
|
|
100000000000100000000000100000000000100000000000,
|
|
100000000000100000000000200000000000000000000000,
|
|
000000000000200000000000000000000000200000000000,
|
|
000000000000300000000000300000000000300000000000,
|
|
700000000000000000000000000000000000000000000000,
|
|
000000000000000000000000000000000000000000000008,
|
|
|
|
#GOGOEND
|
|
|
|
|
|
#END
|
|
|