Files
ESE/01 Pop/Gunjou/Gunjou.tja
T
2023-01-17 00:45:18 -05:00

381 lines
15 KiB
Plaintext

//TJADB Project
TITLE:Gunjou
TITLEJA:群青
SUBTITLE:--YOASOBI
SUBTITLEJA:YOASOBI
BPM:135
WAVE:Gunjou.ogg
OFFSET:-1.891
DEMOSTART:69.342
COURSE:Oni
LEVEL:8
BALLOON:8,8,8
SCOREINIT:500
SCOREDIFF:123
#START
100000000100200000100000100000200000100000200000,
100000000100200000100000200000100000100000200200,
100000000100200000100000100000200000200200200200,
100000000100200000100000200000100000200000000000,
100000000100200000100000100000100000200000100100,
100000000100200000100000100000200000100000200200,
100000000100200000100000100000200000100100200100,
100000000100100000100100200000000000100000100000,
100000000100200000100000100100200000100000200000,
100000000100200000100000200200100000100000200000,
100000000100200000100000100100200000200000200000,
100000000100200000100000200000200100200000200200,
100000000100200000100000100100200000100000200000,
100000000100200000100000100000200200200000000000,
200000000000200000000000200000000000200000200000,
200000200000200000000000200000000000200000000000,
200000000000200000000000200000000000200000000000,
200000000000200000000000200000000000200000000000,
200000000000200000000000200000000000200000200000,
200000200000200000000000200000000000200000000000,
200000000000200000000000200000000000200000000000,
200000000000000000000000700000000000000000800000,
100000100000200000200000100000100100100000200000,
100000100100100000200000100000100000100000200000,
100000100000100000200000100000100100200000200000,
100000100100200000200000100000200000200000200000,
100000200000200000200000100000100200200000200000,
100000100200200000200000100000100000200200100000,
100000200200100000100000200200100000200000100100,
200000200000500000000008000000100100100000200000,
100000100100100000200000100000100200100000200000,
100000100200100000200000100000100100200000200000,
100000100100200000200000100000200200100000200200,
100000200200200000300000000000200200200000200000,
100000200200200000200000100000100200100000200000,
200000100100200000200000100200100000200000000000,
300000300000300000400000300000300000400000300000,
000000300000400000000000700000000000000000800000,
#GOGOSTART
100000100000200000200000100000100100100000200000,
100000100100100000200000100000100200100000200000,
100000100200100000200000100000100100200000200000,
100000100100200000200000100000200100200000200000,
100000200100200000200000100000100200200000200000,
100000100200200000200000100000100100200200100000,
100200200200100000100200200200100000200000100100,
200200200000500000000008000000100100100000200200,
100000100100100000200200100000100200100000200200,
100000100200100000200200100000100100200000200200,
100000100100200000200200100000100200200000200100,
100000100200200000300000000000200200200000200100,
100000200200200000200100100000100200100000200100,
200000100100200000200200100200100000200100200000,
500000000000000000000008000000100100100000200000,
700000000000000000800000000000200000200200200000,
#GOGOEND
100000200000100000200000100000200000200000200000,
100000200000100000200000100000100000300000000000,
#GOGOSTART
100000200200100000200200100000200000100000200000,
100000200200100000200000100100100000100000200000,
100000200100000200100000100000200200100000200000,
100000200100000200100000100000100100200200200000,
100000200200100000200200100000200000100000200000,
100000200200100000200000100100100000100000200000,
100000200100000200100000100000200200100000200000,
200000100200000100200000100000200200100100100000,
100000200200100000200200100000200000100000200000,
100000200200100000200000100100100000100000200000,
100000200100000200100000100000200200100000200000,
100000200100000200100000100000100100200200200000,
100000200200100000200200100000200000100000200000,
100000200200100000200000100100100000100000200000,
#GOGOEND
200000000200000000200000000000200000200000200000,
200000000200000000200000000000000000000000000000,
#END
COURSE:Hard
LEVEL:6
BALLOON:6,26,6,26,6
SCOREINIT:530
SCOREDIFF:133
#START
100000000000000000100000100000200000100000200000,
100000000000000000100000200000100000100000200000,
100000000000000000100000100000200000200000200000,
100000000000000000000000200000100000200000000000,
100000000000000000100000100000100000200000100000,
100000000000000000100000100000200000100000200000,
100000000000000000100000100000200000100000200000,
100000000000000000100100100000000000100000100000,
100000000000000000100000100100100000100000200000,
100000000000000000100000100100100000100000200000,
100000000000000000100000100100100000100000200000,
100000000000000000100000200000200000200000200000,
100000000000000000100000100100100000100000200000,
100000000000000000100000100000200200200000000000,
200000000000200000000000200000000000200000000000,
200000200000200000000000200000000000200000000000,
200000000000200000000000200000000000200000000000,
200000000000200000000000200000000000200000000000,
200000000000200000000000200000000000200000000000,
200000200000200000000000200000000000200000000000,
200000000000200000000000200000000000200000000000,
200000000000000000000000700000000000000000800000,
100000100000200000200000000000100000100000200000,
100000100000100000200000000000100000100000200000,
100000100000100000200000000000100000200000200000,
100000100000200000200000000000200000200000200000,
100000200000200000200000000000200000200000200000,
100000200000200000200000000000100000200000100000,
700000000000000000000000000000000000000000000000,
000000000000000000000000800000100000100000200000,
100000100100100000200000100000100000100000200000,
100000100100100000200000000000100000100000200000,
100000100100100000200000100000200000100000200000,
100000200000000000300000000000200000200000200000,
100000200000200000200000100000200000200000200000,
100000100000200000200000100000100000200000000000,
300000300000300000400000300000300000400000300000,
000000300000400000000000700000000000000000800000,
#GOGOSTART
100000100000200000200000100000100100100000200000,
100000100100100000200000000000100000100000200000,
100000100000100000200000100000100100100000200000,
100000100100100000200000000000200000200000200000,
100000200000200000200000000000200000200000200000,
100000200000200000200000000000100000200000100000,
700000000000000000000000000000000000000000000000,
000000000000000000000000800000100000100000200000,
100000100100100000200000100000100100100000200000,
100000100100100000200000000000100000100000200000,
100000100100100000200000100000200000100000200000,
100000200000000000300000000000200000200000200000,
100000200000200000200000100000200000200000200000,
100000100000200000200000100000100000200000200000,
500000000000000000000008000000000000000000200000,
700000000000000000800000000000200000200000200000,
#GOGOEND
100000200000200000200000000000200000200000200000,
100000200000100000200000100000100000300000000000,
#GOGOSTART
100000200000100000100000200000000000100000100000,
100000200200200000000000100000100000100000200000,
100000000100000000100000000000100000100000200000,
100000000100000000100000000000100000200000000000,
100000200000100000100000200000000000100000200000,
100000200200200000000000100000100000100000200000,
100000000100000000100000000000100000100000200000,
100000000100000000100000000000200000100000100000,
100000200000100000100000200000000000100000100000,
100000200200200000000000100000100000200000200000,
100000000100000000100000000000200000100000100000,
100000000100000000100000000000100000200000000000,
100000200000100000100000200000000000100000100000,
100000200200200000000000100000100000200000200000,
#GOGOEND
200000000200000000200000000000200000200000200000,
200000000200000000200000000000000000000000000000,
0,
#END
COURSE:Normal
LEVEL:4
BALLOON:4,16,4,16,6
SCOREINIT:650
SCOREDIFF:175
#START
100000000000000000000000100000000000100000000000,
100000000000000000000000100000000000100000000000,
100000000000000000000000100000000000200000000000,
100000000000000000000000200000000000000000000000,
100000000000000000100000100000000000100000000000,
100000000000000000100000100000000000100000000000,
100000000000000000100000100000000000200000000000,
100000000000000000000000200000000000000000000000,
100000000000000000100000100000100000100000000000,
100000000000000000100000100000100000100000000000,
100000000000000000100000100000100000100000000000,
100000000000000000200000200000200000200000000000,
100000000000000000200000200000200000200000000000,
100000000000000000100000100000000000200000000000,
200000000000000000000000200000000000200000000000,
200000200000200000000000200000000000000000000000,
200000000000000000000000200000000000000000000000,
200000000000000000000000200000000000000000000000,
200000000000000000000000200000000000200000000000,
200000200000200000000000200000000000000000000000,
200000000000000000000000200000000000000000000000,
200000000000000000000000700000000000000000800000,
100000000000200000000000000000000000200000000000,
100000000000200000000000000000000000200000000000,
100000000000100000000000000000000000200000000000,
100000000000100000000000000000000000200000000000,
100000000000200000000000000000000000200000000000,
100000000000200000000000000000000000200000000000,
700000000000000000000000000000000000000000000000,
000000000000000000000000800000000000000000000000,
100000000000200000200000000000000000200000000000,
100000000000200000200000000000000000200000000000,
100000000000100000100000000000000000200000000000,
100000100000000000300000000000000000200000000000,
100000000000200000200000000000000000200000000000,
100000000000100000100000100000000000100000000000,
300000000000300000000000300000000000300000300000,
000000300000300000000000700000000000000000800000,
#GOGOSTART
100000000000200000200000000000000000200000000000,
100000000000200000200000000000000000200000000000,
100000000000100000100000000000000000200000000000,
100000000000100000100000000000000000200000000000,
100000000000200000200000000000000000200000000000,
100000000000200000200000000000000000200000000000,
700000000000000000000000000000000000000000000000,
000000000000000000000000800000000000000000000000,
100000000000200000200000000000000000200000000000,
100000000000200000200000000000000000200000000000,
100000000000100000100000000000000000200000000000,
100000100000000000300000000000200000200000000000,
100000000000200000200000000000000000200000000000,
100000000000100000000000100000100000100000000000,
500000000000000000000008000000000000000000000000,
700000000000000000000000000000080000000000000000,
#GOGOEND
100000000000200000000000000000000000200000000000,
100000000000200000000000200000000000300000000000,
#GOGOSTART
100000100000000000100000100000000000100000000000,
200000200000200000000000100000000000100000000000,
100000000000000000100000000000200000200000000000,
100000000000000000100000000000200000200000000000,
100000100000000000100000100000000000100000000000,
200000200000200000000000100000000000100000000000,
100000000000000000100000000000200000200000000000,
100000000000000000100000000000200000200000000000,
100000100000000000100000100000000000100000000000,
200000200000200000000000100000000000100000000000,
100000000000000000100000000000200000200000000000,
100000000000000000100000000000200000200000000000,
100000100000000000100000100000000000100000000000,
200000200000200000000000100000000000100000000000,
#GOGOEND
200000000000000000200000000000200000200000000000,
200000000000000000200000000000000000000000000000,
0,
#END
COURSE:Easy
LEVEL:2
BALLOON:14,14,5
SCOREINIT:900
SCOREDIFF:438
#START
100000000000000000000000000000000000000000000000,
100000000000000000000000000000000000000000000000,
100000000000000000000000100000000000000000000000,
200000000000000000000000000000000000000000000000,
100000000000000000000000000000000000000000000000,
100000000000000000000000100000000000000000000000,
100000000000000000000000000000000000000000000000,
100000000000000000000000000000000000000000000000,
100000000000000000000000100000000000000000000000,
100000000000000000000000100000000000000000000000,
100000000000000000000000100000000000000000000000,
100000000000000000000000200000000000000000000000,
100000000000000000000000200000000000000000000000,
100000000000000000000000000000000000000000000000,
200000000000000000000000200000000000000000000000,
200000000000000000000000200000000000000000000000,
200000000000000000000000200000000000000000000000,
200000000000000000000000000000000000000000000000,
200000000000000000000000200000000000000000000000,
200000000000000000000000200000000000000000000000,
200000000000000000000000200000000000000000000000,
200000000000000000000000000000000000000000000000,
100000000000000000000000000000000000000000000000,
100000000000000000000000000000000000000000000000,
100000000000000000000000000000000000000000000000,
100000000000000000000000000000000000000000000000,
200000000000200000000000000000000000000000000000,
200000000000200000000000000000000000000000000000,
700000000000000000000000000000000000000000000000,
000000000000000000000000800000000000000000000000,
100000000000100000000000000000000000000000000000,
100000000000100000000000000000000000000000000000,
100000000000100000000000000000000000000000000000,
100000000000000000000000000000000000000000000000,
200000000000200000000000000000000000000000000000,
100000000000100000000000100000000000000000000000,
500000000000000000000000000000000000000000000000,
000000000008000000000000000000000000000000000000,
#GOGOSTART
100000000000100000000000000000000000000000000000,
100000000000100000000000000000000000000000000000,
100000000000100000000000000000000000000000000000,
100000000000100000000000000000000000000000000000,
200000000000200000000000000000000000000000000000,
200000000000200000000000000000000000000000000000,
700000000000000000000000000000000000000000000000,
000000000000000000000000800000000000000000000000,
100000000000100000000000000000000000000000000000,
100000000000100000000000000000000000000000000000,
100000000000100000000000000000000000000000000000,
100000000000000000000000000000000000000000000000,
200000000000200000000000000000000000000000000000,
100000000000100000000000100000000000100000000000,
500000000000000000000008000000000000000000000000,
700000000000000000000000000000080000000000000000,
#GOGOEND
200000000000000000000000000000000000000000000000,
200000000000000000000000000000000000000000000000,
#GOGOSTART
100000000000000000000000100000000000000000000000,
200000000000000000000000000000000000000000000000,
100000000000000000100000000000000000000000000000,
100000000000000000100000000000000000000000000000,
100000000000000000000000100000000000000000000000,
200000000000000000000000000000000000000000000000,
100000000000000000100000000000000000000000000000,
100000000000000000100000000000000000000000000000,
100000000000000000000000100000000000000000000000,
200000000000000000000000000000000000000000000000,
100000000000000000100000000000000000000000000000,
100000000000000000100000000000000000000000000000,
100000000000000000000000100000000000000000000000,
200000000000000000000000000000000000000000000000,
#GOGOEND
200000000000000000200000000000000000000000000000,
200000000000000000200000000000000000000000000000,
0,
#END