405 lines
17 KiB
Plaintext
405 lines
17 KiB
Plaintext
//TJADB Project
|
|
TITLE:Guts Daze‼
|
|
TITLEJA:ガッツだぜ!!
|
|
SUBTITLE:--Ulfuls
|
|
BPM:248
|
|
WAVE:Guts Daze!!.ogg
|
|
OFFSET:-2.235
|
|
DEMOSTART:8.041
|
|
|
|
COURSE:Oni
|
|
LEVEL:3
|
|
|
|
|
|
#START
|
|
|
|
|
|
,
|
|
,
|
|
,
|
|
,
|
|
,
|
|
200000200000200000200000200000200000200000200000,
|
|
200000000000000000000000100000000000100000100000,
|
|
100000000000200000000000200000000000100000000000,
|
|
100000000000000000200000000000000000100000000000,
|
|
100000000000000000200000000000000000000000000000,
|
|
000000000000000000000000100000000000100000100000,
|
|
100000000000200000000000200000000000000000000000,
|
|
100000000000100000000000100000000000100000000000,
|
|
100000100000000000100000000000000000000000000000,
|
|
000000000000000000000000100000000000100000100000,
|
|
100000000000200000000000200000000000100000000000,
|
|
100000000000000000200000000000000000100000000000,
|
|
100000000000000000200000000000000000000000000000,
|
|
100000000000000000000000100000000000000000000000,
|
|
100000000000000000000000100000000000000000000000,
|
|
100000100000000000100000000000000000200000000000,
|
|
100000100000000000100000000000000000200000000000,
|
|
100000000000000000000000000000000000000000000000,
|
|
000000000000000000000000000000000000000000000000,
|
|
000000000000000000000000000000000000000000000000,
|
|
000000000000000000000000000000000000000000000000,
|
|
200000000000000000000000200000000000200000000000,
|
|
000000000000000000000000000000000000000000000000,
|
|
000000000000200000000000200000000000000000000000,
|
|
200000200000000000200000200000000000200000000000,
|
|
000000000000100000100000100000000000100000100000,
|
|
100000000000000000000000000000000000000000000000,
|
|
000000000000100000100000100000000000200000100000,
|
|
000000200000000000000000000000000000000000000000,
|
|
000000000000100000100000200000000000200000200000,
|
|
100000000000200000200000000000000000000000000000,
|
|
100000100000100000200000000000100000000000200000,
|
|
000000000000000000000000000000000000000000000000,
|
|
000000000000100000100000100000000000100000100000,
|
|
100000000000000000000000000000000000000000000000,
|
|
000000000000100000100000100000000000200000100000,
|
|
000000200000000000000000000000000000000000000000,
|
|
000000000000100000100000200000000000200000200000,
|
|
100000000000200000200000000000000000000000000000,
|
|
100000100000100000200000000000100000000000200000,
|
|
000000000000000000000000000000000000000000000000,
|
|
100000000000100000000000100000000000100000100000,
|
|
100000000000100000100000000000000000200000000000,
|
|
100000000000000000100000000000000000200000000000,
|
|
100000000000000000100000000000000000200000000000,
|
|
100000000000100000100000000000000000200000000000,
|
|
100000000000100000100000000000000000200000000000,
|
|
100000000000000000100000000000000000100000000000,
|
|
000000000000000000000000000000000000000000000000,
|
|
100000000000100000000000100000000000100000000000,
|
|
100000000000100000100000000000000000200000000000,
|
|
100000000000000000100000000000000000200000000000,
|
|
100000000000000000100000000000000000200000000000,
|
|
100000000000100000100000000000000000200000000000,
|
|
100000000000100000100000000000000000200000000000,
|
|
100000000000100000000000100000100000000000100000,
|
|
100000100000000000000000300000000000300000000000,
|
|
000000000000000000000000100000000000100000100000,
|
|
100000000000200000000000200000000000100000000000,
|
|
100000000000000000200000000000000000100000000000,
|
|
100000000000000000200000000000000000000000000000,
|
|
000000000000000000000000100000000000100000100000,
|
|
100000000000200000000000200000000000200000000000,
|
|
100000000000100000000000100000000000100000000000,
|
|
100000100000000000100000000000000000000000000000,
|
|
000000000000000000000000100000000000100000100000,
|
|
100000000000200000000000200000000000100000000000,
|
|
100000000000000000200000000000000000100000000000,
|
|
100000000000000000200000000000000000000000000000,
|
|
100000000000000000000000100000000000000000000000,
|
|
100000000000000000000000100000000000000000000000,
|
|
100000100000000000100000000000000000200000000000,
|
|
100000100000000000100000000000000000200000000000,
|
|
100000000000000000000000000000000000000000000000,
|
|
000000000000000000000000000000000000000000000000,
|
|
000000000000000000000000000000000000000000000000,
|
|
000000000000000000000000000000000000000000000000,
|
|
000000000000000000000000000000000000000000000000,
|
|
000000000000000000000000000000000000000000000000,
|
|
000000000000000000000000000000000000000000000000,
|
|
000000000000000000000000000000000000000000000000,
|
|
000000000000100000100000100000000000100000100000,
|
|
100000000000000000000000000000000000000000000000,
|
|
000000000000100000100000100000000000200000100000,
|
|
000000200000000000000000000000000000000000000000,
|
|
000000000000100000100000200000000000200000200000,
|
|
100000000000200000200000000000000000000000000000,
|
|
100000100000100000200000000000100000000000200000,
|
|
000000000000000000000000000000000000000000000000,
|
|
000000000000100000100000100000000000100000100000,
|
|
100000000000000000000000000000000000000000000000,
|
|
000000000000100000100000100000000000200000100000,
|
|
000000200000000000000000000000000000000000000000,
|
|
000000000000100000100000200000000000200000200000,
|
|
100000000000200000200000000000000000000000000000,
|
|
100000100000100000200000000000100000000000200000,
|
|
000000000000000000000000000000000000000000000000,
|
|
100000000000100000000000100000000000100000100000,
|
|
100000000000100000100000000000000000200000000000,
|
|
100000000000000000100000000000000000200000000000,
|
|
100000000000000000100000000000000000200000000000,
|
|
100000000000100000100000000000000000200000000000,
|
|
100000000000100000100000000000000000200000000000,
|
|
100000000000000000100000000000000000100000000000,
|
|
000000000000000000000000000000000000000000000000,
|
|
100000000000100000000000100000000000100000000000,
|
|
100000000000100000100000000000000000200000000000,
|
|
100000000000000000100000000000000000200000000000,
|
|
100000000000000000100000000000000000200000000000,
|
|
100000000000100000100000000000000000200000000000,
|
|
100000000000100000100000000000000000200000000000,
|
|
100000000000100000000000100000100000000000100000,
|
|
100000100000000000000000300000000000300000000000,
|
|
000000000000000000000000100000000000100000100000,
|
|
100000000000200000000000200000000000100000000000,
|
|
100000000000000000200000000000000000100000000000,
|
|
100000000000000000200000000000000000000000000000,
|
|
000000000000000000000000100000000000100000100000,
|
|
100000000000200000000000200000000000200000000000,
|
|
100000000000100000000000100000000000100000000000,
|
|
100000100000000000100000000000000000000000000000,
|
|
000000000000000000000000100000000000100000100000,
|
|
100000000000200000000000200000000000100000000000,
|
|
100000000000000000200000000000000000100000000000,
|
|
100000000000000000200000000000000000000000000000,
|
|
100000000000000000000000100000000000000000000000,
|
|
100000000000000000000000100000000000000000000000,
|
|
100000100000000000100000000000000000200000000000,
|
|
100000100000000000100000000000000000200000000000,
|
|
100000000000000000000000000000000000000000000000,
|
|
|
|
|
|
#END
|
|
|
|
|
|
COURSE:Hard
|
|
LEVEL:1
|
|
SCOREINIT:470
|
|
SCOREDIFF:110
|
|
|
|
|
|
#START
|
|
|
|
|
|
#BPMCHANGE 124
|
|
000000000000000000000000000000000000000000000000,
|
|
000000000000000000000000000000000000000000000000,
|
|
000000000000000000000000000000000000000000000000,
|
|
000000000000100000100100100000000000000000100000,
|
|
100000000100000000100000100000000100000000000000,
|
|
000000000000100000100100100000000000000000000000,
|
|
100000100000100000100000100100000100000000000000,
|
|
000000000000100000100100100000000000000000100000,
|
|
100000000100000000100000100000000100000000000000,
|
|
100000000000100000000000100000000000100000000000,
|
|
100100000100000000200000100100000100000000200000,
|
|
100000000000000000000000000000000000000000000000,
|
|
000000000000000000000000000000000000000000000000,
|
|
100000000000000000000000000000000000000000000000,
|
|
000000000000000000000000000000000000000000000000,
|
|
000000100100100000100100100000000000000000000000,
|
|
000000100100100000100100000100000000000000000000,
|
|
000000100100100000100000100100100100000000000000,
|
|
100100100100000100000100000000000000000000000000,
|
|
000000100100100000100100100000000000000000000000,
|
|
000000100100100000100100000100000000000000000000,
|
|
000000100100100000100000100100100100000000000000,
|
|
100100100100000100000100000000000000000000000000,
|
|
100000100000100000100000100000100100000000000000,
|
|
100000000100000000200000100000000100000000200000,
|
|
100000100100000000200000100000100100000000200000,
|
|
100000000100000000100000000000000000000000000000,
|
|
100000100000100000100000100000100100000000000000,
|
|
100000000100000000200000100000000100000000200000,
|
|
100000100100000000200000100000100100000000200000,
|
|
100000100000100000100100000100100000100000100000,
|
|
000000000000100000100100100000000000000000100000,
|
|
100000000100000000100000100000000100000000000000,
|
|
000000000000100000100100100000000000000000000000,
|
|
100000100000100000100000100100000100000000000000,
|
|
000000000000100000100100100000000000000000100000,
|
|
100000000100000000100000100000000100000000000000,
|
|
100000000000100000000000100000000000100000000000,
|
|
100100000100000000200000100100000100000000200000,
|
|
100000000000000000000000000000000000000000000000,
|
|
000000000000000000000000000000000000000000000000,
|
|
000000000000000000000000000000000000000000000000,
|
|
000000000000000000000000000000000000000000000000,
|
|
000000100100100000100100100000000000000000000000,
|
|
000000100100100000100100000100000000000000000000,
|
|
000000100100100000100000100100100100000000000000,
|
|
100100100100000100000100000000000000000000000000,
|
|
000000100100100000100100100000000000000000000000,
|
|
000000100100100000100100000100000000000000000000,
|
|
000000100100100000100000100100100100000000000000,
|
|
100100100100000100000100000000000000000000000000,
|
|
100000100000100000100000100000100100000000000000,
|
|
100000000100000000200000100000000100000000200000,
|
|
100000100100000000200000100000100100000000200000,
|
|
100000000100000000100000000000000000000000000000,
|
|
100000100000100000100000100000100100000000000000,
|
|
100000000100000000200000100000000100000000200000,
|
|
100000100100000000200000100000100100000000200000,
|
|
100000100000100000100100000100100000100000100000,
|
|
000000000000100000100100100000000000000000100000,
|
|
100000000100000000100000100000000100000000000000,
|
|
000000000000100000100100100000000000000000000000,
|
|
100000100000100000100000100100000100000000000000,
|
|
000000000000100000100100100000000000000000100000,
|
|
100000000100000000100000100000000100000000000000,
|
|
100000000000100000000000100000000000100000000000,
|
|
100100000100000000200000100100000100000000200000,
|
|
100000000000000000000000000000000000000000000000,
|
|
|
|
|
|
#END
|
|
|
|
|
|
COURSE:Normal
|
|
LEVEL:4
|
|
SCOREINIT:920
|
|
SCOREDIFF:250
|
|
|
|
|
|
#START
|
|
|
|
|
|
#BPMCHANGE 124
|
|
000000000000000000000000000000000000000000000000,
|
|
100000000000000000000000000000000000000000000000,
|
|
100000000000000000000000000000000000000000000000,
|
|
000000000000100000100000100000000000000000000000,
|
|
100000000000100000000000100000000000000000000000,
|
|
000000000000100000100000100000000000000000000000,
|
|
100000100000100000000000100000000000100000000000,
|
|
000000000000100000100000100000000000000000000000,
|
|
100000000000100000000000100000000000000000000000,
|
|
100000000000100000000000100000000000200000000000,
|
|
100000000100000000000000100000000100000000000000,
|
|
300000000000000000000000000000000000000000000000,
|
|
000000000000000000000000000000000000000000000000,
|
|
100000000000000000000000000000000000000000000000,
|
|
100000000000000000000000000000000000000000000000,
|
|
000000100000100000000000100000000000000000000000,
|
|
000000100000100000000000100000000000000000000000,
|
|
000000100000100000000000100000000000000000000000,
|
|
100000100000000200000200000000000000000000000000,
|
|
000000100000100000000000100000000000000000000000,
|
|
000000100000100000000000100000000000000000000000,
|
|
000000100000100000000000100000000000000000000000,
|
|
100000100000000200000200000000000000000000000000,
|
|
100000100000200000000000100000000100000000000000,
|
|
300000000000000000000000300000000000000000000000,
|
|
100000000000000000000000100000000000000000000000,
|
|
300000000000000000000000000000000000000000000000,
|
|
100000100000200000000000100000000100000000000000,
|
|
300000000000000000000000300000000000000000000000,
|
|
100000100000200000000000100000100000200000000000,
|
|
100000100000200000000000500000000000000000000000,
|
|
000800000000100000100000100000000000000000000000,
|
|
100000000100000000100000100000000000000000000000,
|
|
000000000000100000100000100000000000000000000000,
|
|
100000000000100000000000100000000000000000000000,
|
|
000000000000100000100000100000000000000000000000,
|
|
100000000100000000100000100000000000000000000000,
|
|
100000000000200000000000100000000000200000000000,
|
|
100000000100000000000000100000000100000000000000,
|
|
300000000000000000000000000000000000000000000000,
|
|
000000000000000000000000000000000000000000000000,
|
|
100000000000000000000000000000000000000000000000,
|
|
100000000000000000000000000000000000000000000000,
|
|
000000100000100000000000100000000000000000000000,
|
|
000000100000100000000000100000000000000000000000,
|
|
000000100000100000000000100000000000000000000000,
|
|
100000100000000200000200000000000000000000000000,
|
|
000000100000100000000000100000000000000000000000,
|
|
000000100000100000000000100000000000000000000000,
|
|
000000100000100000000000100000000000000000000000,
|
|
100000100000000200000200000000000000000000000000,
|
|
100000100000200000000000100000000100000000000000,
|
|
300000000000000000000000300000000000000000000000,
|
|
100000100000200000000000100000000100000000000000,
|
|
300000000000000000000000000000000000000000000000,
|
|
100000100000200000000000100000000100000000000000,
|
|
300000000000000000000000300000000000000000000000,
|
|
100000100000200000000000100000100000200000000000,
|
|
100000100000200000000000500000000000000000000000,
|
|
000800000000100000100000100000000000000000000000,
|
|
100000000100000000100000100000000000000000000000,
|
|
000000000000100000100000100000000000000000000000,
|
|
100000000000100000000000100000000000000000000000,
|
|
000000000000100000100000100000000000000000000000,
|
|
100000000100000000100000100000000000000000000000,
|
|
100000000000200000000000100000000000200000000000,
|
|
100000000100000000000000100000000100000000000000,
|
|
300000000000000000000000000000000000000000000000,
|
|
|
|
|
|
#END
|
|
|
|
|
|
COURSE:Easy
|
|
LEVEL:3
|
|
SCOREINIT:880
|
|
SCOREDIFF:270
|
|
|
|
|
|
#START
|
|
|
|
|
|
#BPMCHANGE 124
|
|
000000000000000000000000000000000000000000000000,
|
|
100000000000000000000000000000000000000000000000,
|
|
100000000000000000000000000000000000000000000000,
|
|
000000000000100000000000100000000000000000000000,
|
|
100000000000100000000000100000000000000000000000,
|
|
000000000000100000000000100000000000000000000000,
|
|
100000000000100000000000100000000000000000000000,
|
|
000000000000100000000000100000000000000000000000,
|
|
100000000000100000000000100000000000000000000000,
|
|
100000000000000000000000100000000000000000000000,
|
|
100000000000100000000000100000000000100000000000,
|
|
300000000000000000000000000000000000000000000000,
|
|
000000000000000000000000000000000000000000000000,
|
|
100000000000000000000000000000000000000000000000,
|
|
100000000000000000000000000000000000000000000000,
|
|
000000100000100000000000100000000000000000000000,
|
|
000000100000100000000000100000000000000000000000,
|
|
000000100000100000000000100000000000000000000000,
|
|
100000000000100000000000200000000000000000000000,
|
|
000000100000100000000000100000000000000000000000,
|
|
000000100000100000000000100000000000000000000000,
|
|
000000100000100000000000100000000000000000000000,
|
|
100000000000100000000000200000000000000000000000,
|
|
1110,
|
|
3,
|
|
1110,
|
|
3,
|
|
1110,
|
|
3,
|
|
100000000000000000000000100000000000000000000000,
|
|
100000000000100000000000500000000000000000000000,
|
|
000008000000100000000000100000000000000000000000,
|
|
100000000000100000000000100000000000000000000000,
|
|
000000000000100000000000100000000000000000000000,
|
|
100000000000100000000000100000000000000000000000,
|
|
000000000000100000000000100000000000000000000000,
|
|
100000000000100000000000100000000000000000000000,
|
|
100000000000000000000000100000000000000000000000,
|
|
100000000000100000000000100000000000100000000000,
|
|
300000000000000000000000000000000000000000000000,
|
|
000000000000000000000000000000000000000000000000,
|
|
100000000000000000000000000000000000000000000000,
|
|
100000000000000000000000000000000000000000000000,
|
|
000000100000100000000000100000000000000000000000,
|
|
000000100000100000000000100000000000000000000000,
|
|
000000100000100000000000100000000000000000000000,
|
|
100000000000100000000000200000000000000000000000,
|
|
000000100000100000000000100000000000000000000000,
|
|
000000100000100000000000100000000000000000000000,
|
|
000000100000100000000000100000000000000000000000,
|
|
100000000000100000000000200000000000000000000000,
|
|
1110,
|
|
3,
|
|
1110,
|
|
3,
|
|
1110,
|
|
3,
|
|
100000000000000000000000100000000000000000000000,
|
|
100000000000100000000000500000000000000000000000,
|
|
000008000000100000000000100000000000000000000000,
|
|
100000000000100000000000100000000000000000000000,
|
|
000000000000100000000000100000000000000000000000,
|
|
100000000000100000000000100000000000000000000000,
|
|
000000000000100000000000100000000000000000000000,
|
|
100000000000100000000000100000000000000000000000,
|
|
100000000000000000000000100000000000000000000000,
|
|
100000000000100000000000100000000000100000000000,
|
|
300000000000000000000000000000000000000000000000,
|
|
|
|
|
|
#END
|
|
|