277 lines
3.3 KiB
Plaintext
277 lines
3.3 KiB
Plaintext
//TJADB Project
|
|
TITLE:HOT LIMIT
|
|
TITLEJA:HOT LIMIT
|
|
SUBTITLE:--T.M.Revolution
|
|
BPM:138
|
|
WAVE:HOT LIMIT.ogg
|
|
OFFSET:-3.976
|
|
DEMOSTART:16.131
|
|
|
|
COURSE:Oni
|
|
LEVEL:7
|
|
BALLOON:11,14
|
|
SCOREINIT:890
|
|
SCOREDIFF:258
|
|
|
|
|
|
#START
|
|
|
|
|
|
,
|
|
,
|
|
,
|
|
0111111111111212,
|
|
1010202011010020,
|
|
0111111112121212,
|
|
1010101022020020,
|
|
|
|
#GOGOSTART
|
|
1001102010110020,
|
|
1011101110220000,
|
|
1011101020222020,
|
|
100000100100100000100500000000000008000000000000,
|
|
1011102010110020,
|
|
1011101110220000,
|
|
1011101020222020,
|
|
300000300000300000000000500000000008000000000000,//15
|
|
|
|
#GOGOEND
|
|
1011120010111200,
|
|
1011120010221022,
|
|
1022120010221200,
|
|
1022120010221022,
|
|
1011101110220011,
|
|
1011101110220000,
|
|
1011101110220011,
|
|
1001101030000000,
|
|
1011202210220011,
|
|
1011202210220011,
|
|
1011202210220011,
|
|
1001101030000000,
|
|
1001101020022020,
|
|
1001101030000011,
|
|
1001101020002010,
|
|
1000100030000022,
|
|
1001101020022020,
|
|
1001101030000022,
|
|
500000000008000000100100100000000000000000200200,
|
|
1001001030000022,
|
|
7008,
|
|
|
|
#GOGOSTART
|
|
1002201010220010,
|
|
1022102210220000,
|
|
1011101020222020,
|
|
100000100100100000100500000000000008000000000000,
|
|
1011102010110020,
|
|
1022102210220000,
|
|
1011101020222020,
|
|
70000008,
|
|
|
|
#GOGOEND
|
|
|
|
|
|
#END
|
|
|
|
|
|
COURSE:Hard
|
|
LEVEL:6
|
|
BALLOON:14
|
|
SCOREINIT:1020
|
|
SCOREDIFF:350
|
|
|
|
|
|
#START
|
|
|
|
|
|
,
|
|
,
|
|
,
|
|
1110111010101000,
|
|
1000202011020020,
|
|
1110111010101000,
|
|
500000000000000000000000000000000008000000000000,//7
|
|
|
|
#GOGOSTART
|
|
1000101010110020,
|
|
3330,
|
|
11112020,
|
|
3000300300000000,
|
|
1000101010110020,
|
|
3330,
|
|
10221122,
|
|
33303000,//15
|
|
|
|
#GOGOEND
|
|
1011100010111000,
|
|
1011100010102020,
|
|
1011100010111000,
|
|
1011100010102020,
|
|
1000101010220000,
|
|
1000101010220000,
|
|
1000101010220010,
|
|
1001001030000000,
|
|
1000101010220000,
|
|
1000101010220000,
|
|
1000101010220010,
|
|
1001001030000000,
|
|
1001001020010020,
|
|
1001001020000011,
|
|
1001001020002000,
|
|
1130,
|
|
1001001020010020,
|
|
1001001020000011,
|
|
500000000000000000000000000000000008000000000000,
|
|
1001001010000011,
|
|
500000000000000000000000000000000008000000000000,//36
|
|
|
|
#GOGOSTART
|
|
1000101010110020,
|
|
3330,
|
|
11112020,
|
|
3000300300000000,
|
|
1000101010110020,
|
|
3330,
|
|
11112020,
|
|
70000008,//44
|
|
|
|
#GOGOEND
|
|
|
|
|
|
#END
|
|
|
|
|
|
COURSE:Normal
|
|
LEVEL:4
|
|
BALLOON:9
|
|
SCOREINIT:1200
|
|
SCOREDIFF:593
|
|
|
|
|
|
#START
|
|
|
|
|
|
,
|
|
,
|
|
,
|
|
11,
|
|
1120,
|
|
11,
|
|
500000000000000000000000000000000008000000000000,//7
|
|
|
|
#GOGOSTART
|
|
1110,
|
|
1210,
|
|
10201110,
|
|
3000300300000000,
|
|
1110,
|
|
1210,
|
|
11102220,
|
|
3330,//15
|
|
|
|
#GOGOEND
|
|
1022,
|
|
12,
|
|
1022,
|
|
3,
|
|
10111020,
|
|
1120,
|
|
1111,
|
|
500000000000000000000000000000000008000000000000,
|
|
10111020,
|
|
1120,
|
|
1111,
|
|
500000000000000000000000000000000008000000000000,
|
|
10011020,
|
|
10022000,
|
|
10011020,
|
|
3330,
|
|
10011020,
|
|
10011000,
|
|
10011000,
|
|
10011000,
|
|
10033000,//36
|
|
|
|
#GOGOSTART
|
|
1110,
|
|
1210,
|
|
10201110,
|
|
3000300300000000,
|
|
1110,
|
|
1210,
|
|
11102220,
|
|
70000008,//44
|
|
|
|
#GOGOEND
|
|
|
|
|
|
#END
|
|
|
|
|
|
COURSE:Easy
|
|
LEVEL:3
|
|
BALLOON:7
|
|
SCOREINIT:1120
|
|
SCOREDIFF:830
|
|
|
|
|
|
#START
|
|
|
|
|
|
,
|
|
,
|
|
,
|
|
11,
|
|
1011,
|
|
11,
|
|
500000000000000000000000000008000000000000000000,//7
|
|
|
|
#GOGOSTART
|
|
11,
|
|
11,
|
|
12,
|
|
1110,
|
|
11,
|
|
11,
|
|
12,
|
|
500000000000000000000000000008000000000000000000,//15
|
|
|
|
#GOGOEND
|
|
1011,
|
|
12,
|
|
1011,
|
|
12,
|
|
11,
|
|
1011,
|
|
12,
|
|
33,
|
|
11,
|
|
1011,
|
|
12,
|
|
3330,
|
|
1001,
|
|
12,
|
|
1001,
|
|
1110,
|
|
1001,
|
|
12,
|
|
11,
|
|
3330,
|
|
500000000000000000000000000008000000000000000000,//36
|
|
|
|
#GOGOSTART
|
|
1110,
|
|
33,
|
|
11,
|
|
500000000000000000000000000008000000000000000000,
|
|
1110,
|
|
33,
|
|
12,
|
|
70000008,//44
|
|
|
|
#GOGOEND
|
|
|
|
|
|
#END
|
|
|