92 lines
3.7 KiB
Plaintext
92 lines
3.7 KiB
Plaintext
//TJADB Project
|
|
TITLE:HOTEL PACIFIC
|
|
TITLEJA:HOTEL PACIFIC
|
|
SUBTITLE:--Southern All Stars
|
|
BPM:156
|
|
WAVE:HOTEL PACIFIC.ogg
|
|
OFFSET:-6.525
|
|
DEMOSTART:86.316
|
|
|
|
COURSE:Normal
|
|
LEVEL:4
|
|
SCOREINIT:760
|
|
SCOREDIFF:190
|
|
|
|
|
|
#START
|
|
|
|
|
|
100000000000000000000000000000000000000000000000,
|
|
100000000000000000000000000000000000000000000000,
|
|
100000000000000000000000000000000000000000000000,
|
|
100000000000000000000000000000000000000000000000,
|
|
100000000000000000100000000000000000200000000000,
|
|
100000000000000000100000000000000000200000000000,
|
|
100000000000000000100000000000000000200000000000,
|
|
100000000000000000100000000000000000200000000000,
|
|
100000000000000000100000000000000000200000000000,
|
|
100000000000000000100000000000000000200000000000,
|
|
100000000000000000100000000000000000200000000000,
|
|
100000000000100000000000100000000000100000100000,
|
|
100000000000000000100000000000000000100000100000,
|
|
100000000000000000100000000000000000100000100000,
|
|
100000000000000000100000000000000000100000100000,
|
|
100000000000000000100000000000000000100000100000,
|
|
100000000000000000100000000000000000100000100000,
|
|
100000000000000000100000000000000000100000100000,
|
|
100000000000000000100000000000000000100000100000,
|
|
100000000000000000100000000000000000100000100000,
|
|
100000000000200000100000000000200000100000100000,
|
|
100000000000200000100000000000200000100000100000,
|
|
100000000000200000100000000000200000100000100000,
|
|
100000000000200000100000000000200000100000100000,
|
|
100000000000200000100000000000200000100000100000,
|
|
100000000000200000100000000000200000100000100000,
|
|
100000000000100000000000100000100000000000100000,
|
|
000000000000000000000000000000000000000000000000,
|
|
000000000000100000100000000000100000000000000000,
|
|
000000000000100000100000000000100000000000000000,
|
|
000000000000100000100000000000100000000000000000,
|
|
000000000000100000100000000000100000000000000000,
|
|
000000000000100000100000000000100000000000000000,
|
|
000000000000100000100000000000100000000000000000,
|
|
000000000000100000100000000000100000000000000000,
|
|
000000000000100000100000000000100000000000000000,
|
|
200000000000100000100000000000100000000000000000,
|
|
200000000000100000100000000000100000000000000000,
|
|
200000000000100000100000000000100000000000000000,
|
|
200000000000100000100000000000100000000000000000,
|
|
200000000000100000100000000000100000000000000000,
|
|
200000000000100000100000000000100000000000000000,
|
|
100000000000100000000000100000100000000000100000,
|
|
000000000000000000000000000000000000000000000000,
|
|
100000000000000000100000000000000000100000000000,
|
|
000000100000000000000000100000000000100000000000,
|
|
100000000000000000100000000000000000100000000000,
|
|
000000100000000000000000100000000000100000000000,
|
|
100000000000000000100000000000000000100000000000,
|
|
000000100000000000000000100000000000100000000000,
|
|
100000000000000000100000000000000000100000000000,
|
|
500000000000000000000000000000000008000000100000,
|
|
000000100000100000100000000000100000100000100000,
|
|
100000000000000000100000100000000000000000100000,
|
|
000000100000100000100000000000100000100000100000,
|
|
100000000000000000100000100000000000000000100000,
|
|
000000100000100000100000000000100000100000100000,
|
|
100000000000000000100000000000100000100000100000,
|
|
100000000000000000000000000000000000100000000000,
|
|
100000000000000000000000000000000000000000000000,
|
|
000000100000100000000000000000100000100000000000,
|
|
000000100000100000100000100000100100100000000000,
|
|
000000100000100000000000000000100000100000000000,
|
|
000000100000100000100000100000100000000000000000,
|
|
100000000000200000100000000000200000100000100000,
|
|
100000000000200000100000000000200000100000100000,
|
|
000000000000000000000000000000000000000000000000,
|
|
100000000000100000000000000000000000000000000000,
|
|
300000000000000000000000000000000000000000000000,
|
|
|
|
|
|
#END
|
|
|