Files
ESE/01 Pop/Halzion/Halzion.tja
T
2023-01-17 00:45:18 -05:00

258 lines
8.7 KiB
Plaintext

//TJADB Project
TITLE:Halzion
TITLEJA:ハルジオン
SUBTITLE:--YOASOBI
SUBTITLEJA:YOASOBI
BPM:130
WAVE:Halzion.ogg
OFFSET:-1.960
DEMOSTART:45.094
COURSE:Oni
LEVEL:7
BALLOON:22,20
SCOREINIT:1030
SCOREDIFF:305
#START
100000000100000100100000000000100000200000100000,
100000000100000100100000000000200000100000100000,
100000000100000100100000000000100000200000100000,
100000000200000100100000000000200000100000100000,
100000200100000100100000200000100000200000100000,
100000200100000100100000200000200000100000100000,
100000200100000100100000200000100000200000200000,
000000200000100100000200000100100000200000100000,
100000100100200000200000000000100000200000200000,
100000100100200000100000000000100000200000100000,
100000100100200000200000000000100000200000200000,
200000100100200000100000000000100000200000100000,
100000100100200000200000000000100000100000200000,
100000200200100000100000000000100000200200100000,
100000100000200200100000000000100000200200100000,
100000200000200000100000000000200000200000200000,
100000200000100000100000100000200000100000200000,
100000200000100100100000100000200000200000200000,
100000200000100000100000200000100000200000100100,
200000200000100000200200100000000000200000000000,
100000200000100000100100200000100100200000200000,
100000200000100000100100200000100000200000000000,
700000000000000000000000000000000000000000000000,
800000000000000000100000100000100100100000200000,
#GOGOSTART
300000100100000000200000100000100100000000200000,
100000100100200000200000100000100200000000200000,
100000100000200000100100200000100100200000100000,
100000100100000200000000100000000000200000100000,
100000100000200000100100000100200000100000200000,
100000100000200000100100000200100000200000100000,
500000000000000000000000000000000000000008000000,
100000000100200000100000100000100100100000200000,
300000100100000000200000100000100100000000200000,
100000100100200000200000100000100200000000200000,
100000100000200000200200100000100100200000100000,
100000100100000200000000200000000000200000100000,
100000000100000000200000100000000100000000200000,
100000000100000000100000
#GOGOEND
200000000200000000200000,
500000000000000000000000000000000000000008000000,
200000000200000000200000100000000000100000000000,
500000000000000000000000000008000000200000000000,
700000000000000000000000000000000000000000000008,
#END
COURSE:Hard
LEVEL:5
BALLOON:11,12,14
SCOREINIT:1260
SCOREDIFF:433
#START
100000000000000000100000000000100000200000000000,
100000000000000000100000000000200000100000000000,
100000000000000000100000000000100000200000000000,
100000000000000000100000000000200000100000000000,
100000000100000100100000000000100000200000000000,
100000000100000100100000000000200000100000000000,
100000000100000100100000000000100000200000200000,
000000700000000000000000000000000000000000800000,
100000000000100000100000000000100000200000000000,
100000000000200000200000000000000000100000000000,
100000000000100000100000000000100000200000000000,
100000000000200000200000000000000000100000000000,
100000000000100000100000000000100000200000000000,
100000000000200000200000000000100000100000000000,
100000000000100000100000000000100000100000100000,
000000200000200000100000000000000000200000000000,
100000000000100000000000200000100000200000100000,
100000000000100000100000200000100000200000000000,
100000000000100000000000200000100000200000100000,
100000000000200000200000200000000000100000000000,
100000000000100000100000200000100000200000100000,
100000000000100000100000200000100000200000000000,
9,
8,
#GOGOSTART
300000100100000000200000100000100100000000200000,
100000000000100000200000100000100100000000200000,
100000100000200000000000200000100000100000000000,
500000000000000000000000000008000000100000000000,
100000000000200000100000000000200000100000200000,
100000000000200000200000000000100000200000100000,
500000000000000000000000000000000000000000000008,
000000000000000000000000100000100000100000000000,
300000100100000000200000100000100100000000200000,
100000000000100000200000100000100100000000200000,
100000100000200000000000200000100000200000000000,
500000000000000000000000000008000000100000000000,
100000000100000000200000100000000100000000200000,
100000000100000000100000
#GOGOEND
200000000200000000200000,
500000000000000000000000000000000000000000000008,
000000000000000000000000100000000000100000000000,
500000000000000000000000000008000000000000000000,
700000000000000000000000000000000000000000000008,
#END
COURSE:Normal
LEVEL:3
BALLOON:8,10,10
SCOREINIT:1370
SCOREDIFF:705
#START
100000000000000000100000000000000000000000000000,
100000000000000000100000000000000000000000000000,
100000000000000000100000000000000000000000000000,
200000000000000000200000000000000000000000000000,
100000000000000000100000000000000000100000000000,
100000000000000000100000000000000000100000000000,
100000000000000000100000000000000000100000000000,
000000700000000000000000000000000000000000800000,
100000000000100000100000000000000000000000000000,
100000000000200000200000000000000000000000000000,
100000000000100000100000000000000000000000000000,
200000000000200000200000000000000000000000000000,
100000000000100000100000000000000000000000000000,
100000000000200000200000000000000000000000000000,
100000000000100000100000000000000000000000000000,
100000000000200000200000000000000000000000000000,
100000000000100000000000100000100000100000000000,
100000000000100000100000100000000000100000000000,
100000000000100000000000100000100000100000000000,
200000000000200000200000200000000000000000000000,
100000000000100000000000100000100000100000000000,
100000000000100000100000100000000000200000000000,
9,
8,
#GOGOSTART
300000000000000000100000100000000000000000100000,
100000000000100000000000100000000000000000000000,
100000100000100000000000200000000000200000000000,
500000000000000000000000000008000000000000000000,
100000000000200000200000000000000000100000000000,
100000000000200000200000000000000000100000000000,
500000000000000000000000000000000000000000000008,
000000000000000000000000000000000000000000000000,
300000000000000000100000100000000000000000100000,
100000000000100000000000100000000000000000000000,
100000100000100000000000200000000000200000000000,
500000000000000000000000000008000000000000000000,
100000000100000000000000100000000100000000000000,
200000000200000000000000
#GOGOEND
200000000200000000000000,
500000000000000000000000000000000000000000000080,
000000000000000000000000100000000000100000000000,
500000000000000000000000000008000000000000000000,
700000000000000000000000000000000000000000000008,
#END
COURSE:Easy
LEVEL:2
BALLOON:7,8
SCOREINIT:1480
SCOREDIFF:1290
#START
100000000000000000000000000000000000000000000000,
100000000000000000000000000000000000000000000000,
100000000000000000000000000000000000000000000000,
200000000000000000000000000000000000000000000000,
100000000000000000100000000000000000000000000000,
100000000000000000100000000000000000000000000000,
100000000000000000100000000000000000000000000000,
000000000000000000000000000000000000000000000000,
100000000000100000000000000000000000000000000000,
100000000000000000000000000000000000000000000000,
100000000000100000000000000000000000000000000000,
200000000000000000000000000000000000000000000000,
100000000000100000000000000000000000000000000000,
100000000000100000000000000000000000000000000000,
100000000000100000000000000000000000000000000000,
200000000000200000000000000000000000000000000000,
100000000000000000000000100000000000000000000000,
100000000000100000000000100000000000000000000000,
100000000000000000000000100000000000000000000000,
200000000000200000000000200000000000000000000000,
100000000000000000000000100000000000000000000000,
100000000000100000000000100000000000000000000000,
9,
8,
#GOGOSTART
300000000000000000000000100000000000000000000000,
100000000000100000000000100000000000000000000000,
100000000000000000000000200000000000000000000000,
500000000000000000000000000008000000000000000000,
100000000000100000000000000000000000100000000000,
100000000000100000000000000000000000100000000000,
500000000000000000000000000000000000000000000008,
000000000000000000000000000000000000000000000000,
300000000000000000000000100000000000000000000000,
100000000000100000000000100000000000000000000000,
100000000000000000000000200000000000000000000000,
500000000000000000000000000008000000000000000000,
100000000000000000000000100000000000000000000000,
200000000000000000000000
#GOGOEND
200000000000000000000000,
500000000000000000000000000000000000000000000008,
000000000000000000000000100000000000100000000000,
500000000000000000000000000008000000000000000000,
700000000000000000000000000000000000000000000008,
#END