629 lines
9.1 KiB
Plaintext
629 lines
9.1 KiB
Plaintext
//TJADB Project
|
|
TITLE:Happy Wedding-mae Song
|
|
TITLEJA:ハッピーウェディング前ソング
|
|
SUBTITLE:--Yabai T-Shirts Yasan
|
|
SUBTITLEJA:ヤバイTシャツ屋さん
|
|
BPM:192.3
|
|
WAVE:Happy Wedding-mae Song.ogg
|
|
OFFSET:-0.434
|
|
DEMOSTART:53.631
|
|
|
|
COURSE:Edit
|
|
LEVEL:8
|
|
BALLOON:20
|
|
SCOREINIT:710
|
|
SCOREDIFF:200
|
|
|
|
|
|
#START
|
|
|
|
|
|
#BARLINEOFF
|
|
#SCROLL 0.95
|
|
00000004,
|
|
|
|
#BARLINEON
|
|
#GOGOSTART
|
|
#BPMCHANGE 181.3
|
|
#SCROLL 1
|
|
30201123,
|
|
#BPMCHANGE 185.28
|
|
#SCROLL 0.98
|
|
0010222211111000,
|
|
#BPMCHANGE 184.31
|
|
#SCROLL 0.99
|
|
30212123,
|
|
#BPMCHANGE 181.73
|
|
#SCROLL 1
|
|
0010202210102030,
|
|
#BPMCHANGE 183.75
|
|
#SCROLL 0.99
|
|
01230223,
|
|
#BPMCHANGE 181.58
|
|
#SCROLL 1
|
|
0010203000222222,
|
|
#BPMCHANGE 185.14
|
|
#SCROLL 0.98
|
|
1000201110102010,
|
|
#BPMCHANGE 182.73
|
|
#SCROLL 1
|
|
2011201111111020,
|
|
|
|
#GOGOEND
|
|
#BPMCHANGE 185.61
|
|
#SCROLL 0.98
|
|
3010201010220111,
|
|
#BPMCHANGE 179.79
|
|
#SCROLL 1.01
|
|
1010201010220010,
|
|
#BPMCHANGE 183
|
|
#SCROLL 1
|
|
01211121,
|
|
2012012000104010,
|
|
#BPMCHANGE 181.57
|
|
31211121,
|
|
#BPMCHANGE 184.45
|
|
#SCROLL 0.99
|
|
12140141,
|
|
#BPMCHANGE 183
|
|
#SCROLL 1
|
|
30212121,
|
|
#BPMCHANGE 183.19
|
|
#SCROLL 0.99
|
|
1010202220201020,
|
|
#BPMCHANGE 182.81
|
|
#SCROLL 1
|
|
3010201010220111,
|
|
#BPMCHANGE 182.46
|
|
1010201010220010,
|
|
#BPMCHANGE 183.55
|
|
#SCROLL 0.99
|
|
01211121,
|
|
#BPMCHANGE 181.73
|
|
#SCROLL 1
|
|
22120141,
|
|
#BPMCHANGE 181.93
|
|
31211121,
|
|
#BPMCHANGE 186.44
|
|
#SCROLL 0.98
|
|
22140141,
|
|
#BPMCHANGE 181.98
|
|
#SCROLL 1
|
|
31212121,
|
|
#BPMCHANGE 183
|
|
0010202220201010,
|
|
#BPMCHANGE 180.39
|
|
#SCROLL 1.01
|
|
1001201020004000,
|
|
1001201020004000,
|
|
#BPMCHANGE 184.36
|
|
#SCROLL 0.99
|
|
1001201020004010,
|
|
#BPMCHANGE 184.78
|
|
1011201040111111,
|
|
#BPMCHANGE 187.5
|
|
#SCROLL 0.97
|
|
21111111,
|
|
#BPMCHANGE 180.82
|
|
#SCROLL 1.01
|
|
11121211,
|
|
#BPMCHANGE 183
|
|
#SCROLL 1
|
|
21212121,
|
|
#BPMCHANGE 184.01
|
|
#SCROLL 0.99
|
|
2010201020111010,
|
|
#BPMCHANGE 181.03
|
|
#SCROLL 1.01
|
|
32023202,
|
|
#BPMCHANGE 180.64
|
|
32023202,
|
|
#BPMCHANGE 182.53
|
|
#SCROLL 1
|
|
32023202,
|
|
#BPMCHANGE 187.5
|
|
#SCROLL 0.97
|
|
3020002030222222,
|
|
#BPMCHANGE 182.46
|
|
#SCROLL 1
|
|
500008000000200000200000500008000000200000200000,
|
|
#BPMCHANGE 185.06
|
|
#SCROLL 0.98
|
|
500008000000200000200000500008000000200000200000,
|
|
#BPMCHANGE 181.33
|
|
#SCROLL 1
|
|
500008000000200000200000600008000000400000400000,
|
|
#BPMCHANGE 183.95
|
|
#SCROLL 0.99
|
|
6000000000000008,
|
|
|
|
#GOGOSTART
|
|
#BPMCHANGE 181.71
|
|
#SCROLL 1
|
|
00411121,
|
|
#BPMCHANGE 179
|
|
#SCROLL 1.02
|
|
12120212,
|
|
#BPMCHANGE 183.14
|
|
#SCROLL 0.99
|
|
11211121,
|
|
#BPMCHANGE 185.4
|
|
#SCROLL 0.98
|
|
12120212,
|
|
#BPMCHANGE 184.6
|
|
#SCROLL 0.99
|
|
1122102010200010,
|
|
#BPMCHANGE 183
|
|
#SCROLL 1
|
|
0011221010200010,
|
|
#BPMCHANGE 182.24
|
|
01211121,
|
|
#BPMCHANGE 184.36
|
|
#SCROLL 0.99
|
|
4011201120111111,
|
|
#BPMCHANGE 182.41
|
|
#SCROLL 1
|
|
10211121,
|
|
#BPMCHANGE 180.86
|
|
#SCROLL 1.01
|
|
12120212,
|
|
#BPMCHANGE 182.94
|
|
#SCROLL 1
|
|
11211121,
|
|
#BPMCHANGE 185.25
|
|
#SCROLL 0.98
|
|
02010201,
|
|
#BPMCHANGE 183
|
|
#SCROLL 1
|
|
5008000010002010,
|
|
11210121,
|
|
01211121,
|
|
0010201011104010,
|
|
|
|
#GOGOEND
|
|
7,
|
|
8,
|
|
|
|
|
|
#END
|
|
|
|
|
|
COURSE:Oni
|
|
LEVEL:6
|
|
BALLOON:15,2,2,2,2,2,2,2,18
|
|
SCOREINIT:990
|
|
SCOREDIFF:290
|
|
|
|
|
|
#START
|
|
|
|
|
|
#BARLINEOFF
|
|
#SCROLL 0.95
|
|
,
|
|
|
|
#BARLINEON
|
|
#GOGOSTART
|
|
#BPMCHANGE 181.3
|
|
#SCROLL 1
|
|
10101212,
|
|
#BPMCHANGE 185.28
|
|
#SCROLL 0.98
|
|
000000200000100000500000000000000008000000000000,
|
|
#BPMCHANGE 184.31
|
|
#SCROLL 0.99
|
|
10101212,
|
|
#BPMCHANGE 181.73
|
|
#SCROLL 1
|
|
000000200000100000500000000008000000200000300000,
|
|
#BPMCHANGE 183.75
|
|
#SCROLL 0.99
|
|
03040403,
|
|
#BPMCHANGE 181.58
|
|
#SCROLL 1
|
|
03040012,
|
|
#BPMCHANGE 185.14
|
|
#SCROLL 0.98
|
|
7,
|
|
#BPMCHANGE 182.73
|
|
#SCROLL 1
|
|
00008220,
|
|
|
|
#GOGOEND
|
|
#BPMCHANGE 185.61
|
|
#SCROLL 0.99
|
|
1010101020220000,
|
|
#BPMCHANGE 179.79
|
|
#SCROLL 1.01
|
|
1010101020220010,
|
|
#BPMCHANGE 183
|
|
#SCROLL 1
|
|
01011122,
|
|
1001002000202000,
|
|
#BPMCHANGE 181.57
|
|
11221122,
|
|
#BPMCHANGE 184.45
|
|
#SCROLL 0.99
|
|
11120202,
|
|
#BPMCHANGE 183
|
|
#SCROLL 1
|
|
11221122,
|
|
#BPMCHANGE 183.19
|
|
#SCROLL 0.99
|
|
11120220,
|
|
#BPMCHANGE 182.81
|
|
#SCROLL 1
|
|
1010101020220000,
|
|
#BPMCHANGE 182.46
|
|
1010101020220010,
|
|
#BPMCHANGE 183.55
|
|
#SCROLL 0.99
|
|
01011122,
|
|
#BPMCHANGE 181.73
|
|
#SCROLL 1
|
|
11120202,
|
|
#BPMCHANGE 181.93
|
|
11221122,
|
|
#BPMCHANGE 186.44
|
|
#SCROLL 0.98
|
|
11120220,
|
|
#BPMCHANGE 181.98
|
|
#SCROLL 1
|
|
11201021,
|
|
#BPMCHANGE 183
|
|
,
|
|
#BPMCHANGE 180.39
|
|
#SCROLL 1.01
|
|
10011040,
|
|
10011040,
|
|
#BPMCHANGE 184.36
|
|
#SCROLL 0.99
|
|
10011041,
|
|
#BPMCHANGE 184.78
|
|
01101041,
|
|
#BPMCHANGE 187.5
|
|
#SCROLL 0.97
|
|
02011122,
|
|
#BPMCHANGE 180.82
|
|
#SCROLL 1.01
|
|
11120201,
|
|
#BPMCHANGE 183
|
|
#SCROLL 1
|
|
02221122,
|
|
#BPMCHANGE 184.01
|
|
#SCROLL 0.99
|
|
11221022,
|
|
#BPMCHANGE 181.03
|
|
#SCROLL 1.01
|
|
00780078,
|
|
#BPMCHANGE 180.64
|
|
00780078,
|
|
#BPMCHANGE 182.53
|
|
#SCROLL 1
|
|
00780078,
|
|
#BPMCHANGE 187.5
|
|
#SCROLL 0.97
|
|
00780000,
|
|
#BPMCHANGE 182.46
|
|
#SCROLL 1
|
|
500000000008000000000000500000000008000000000000,
|
|
#BPMCHANGE 185.06
|
|
#SCROLL 0.98
|
|
500000000008000000000000500000000008000000000000,
|
|
#BPMCHANGE 181.33
|
|
#SCROLL 1
|
|
500000000008000000000000600000000000000000000000,
|
|
#BPMCHANGE 183.95
|
|
#SCROLL 0.99
|
|
000000000008000000000000000000000000000000000000,
|
|
|
|
#GOGOSTART
|
|
#BPMCHANGE 181.71
|
|
#SCROLL 1
|
|
30221122,
|
|
#BPMCHANGE 179
|
|
#SCROLL 1.02
|
|
11040220,
|
|
#BPMCHANGE 183.14
|
|
#SCROLL 0.99
|
|
11221121,
|
|
#BPMCHANGE 185.4
|
|
#SCROLL 0.98
|
|
01040220,
|
|
#BPMCHANGE 184.6
|
|
#SCROLL 0.99
|
|
1110101020200010,
|
|
#BPMCHANGE 183
|
|
#SCROLL 1
|
|
0011101020200010,
|
|
#BPMCHANGE 182.24
|
|
01112221,
|
|
#BPMCHANGE 184.36
|
|
#SCROLL 0.99
|
|
02121212,
|
|
#BPMCHANGE 182.41
|
|
#SCROLL 1
|
|
30221122,
|
|
#BPMCHANGE 180.86
|
|
#SCROLL 1.01
|
|
11040220,
|
|
#BPMCHANGE 182.94
|
|
#SCROLL 1
|
|
11221121,
|
|
#BPMCHANGE 185.25
|
|
#SCROLL 0.98
|
|
02020204,
|
|
#BPMCHANGE 183
|
|
00001022,
|
|
11220221,
|
|
02211021,
|
|
02211102,
|
|
|
|
#GOGOEND
|
|
7,
|
|
8,
|
|
|
|
|
|
#END
|
|
|
|
|
|
COURSE:Hard
|
|
LEVEL:3
|
|
BALLOON:15,2,2,2,2,2,2,2,18
|
|
SCOREINIT:1210
|
|
SCOREDIFF:408
|
|
|
|
#START
|
|
#BARLINEOFF
|
|
,//1
|
|
|
|
#BARLINEON
|
|
#GOGOSTART
|
|
10101212,
|
|
000000200000100000500000000000000008000000000000,
|
|
#BPMCHANGE 183.4
|
|
10101212,
|
|
000000200000100000500000000008000000200000300000,
|
|
03040403,
|
|
03040012,
|
|
7,
|
|
00008220,//9
|
|
|
|
#GOGOEND
|
|
1010101020220000,
|
|
1010101020220010,
|
|
01011122,
|
|
1001002000202000,
|
|
11221122,
|
|
11120202,
|
|
11221122,
|
|
11120220,
|
|
1010101020220000,
|
|
1010101020220010,
|
|
01011122,
|
|
11120202,
|
|
#BPMCHANGE 183.15
|
|
11221122,
|
|
11120220,
|
|
11201021,
|
|
,
|
|
#BPMCHANGE 182.5
|
|
10011040,
|
|
10011040,
|
|
10011041,
|
|
01101041,
|
|
#BPMCHANGE 183.25
|
|
02011122,
|
|
11120201,
|
|
#BPMCHANGE 183.3
|
|
02221122,
|
|
11221022,
|
|
#BPMCHANGE 182.6
|
|
00780078,
|
|
00780078,
|
|
00780078,
|
|
00780000,
|
|
#BPMCHANGE 184.3
|
|
500000000008000000000000500000000008000000000000,
|
|
500000000008000000000000500000000008000000000000,
|
|
500000000008000000000000600000000000000000000000,
|
|
#BPMCHANGE 183.4
|
|
000000000008000000000000000000000000000000000000,//41
|
|
|
|
#BPMCHANGE 182.7
|
|
#GOGOSTART
|
|
30221122,
|
|
11040220,
|
|
11221121,
|
|
01040220,
|
|
1110101020200010,
|
|
0011101020200010,
|
|
01112221,
|
|
02121212,
|
|
30221122,
|
|
11040220,
|
|
11221121,
|
|
02020204,
|
|
00001022,
|
|
11220221,
|
|
02211021,
|
|
02211102,//57
|
|
|
|
#GOGOEND
|
|
7,
|
|
8,
|
|
#END
|
|
|
|
COURSE:Normal
|
|
LEVEL:2
|
|
BALLOON:2,2,2,2,2,2,2,8,7
|
|
SCOREINIT:1390
|
|
SCOREDIFF:863
|
|
|
|
#START
|
|
#BARLINEOFF
|
|
,//1
|
|
|
|
#BARLINEON
|
|
#GOGOSTART
|
|
10101005,
|
|
000000000000000000000008000000000000000000000000,
|
|
#BPMCHANGE 183.4
|
|
10101005,
|
|
000000000000000000000008000000000000000000300000,
|
|
00030003,
|
|
00030000,
|
|
6,
|
|
000000000000000000000008000000000000000000000000,//9
|
|
|
|
#GOGOEND
|
|
11,
|
|
11,
|
|
1110,
|
|
2,
|
|
11,
|
|
1,
|
|
1110,
|
|
2,
|
|
11,
|
|
11,
|
|
1110,
|
|
2,
|
|
#BPMCHANGE 183.15
|
|
11,
|
|
1,
|
|
500000000000000000000000000000000000000000000008,
|
|
,
|
|
#BPMCHANGE 182.5
|
|
31,
|
|
31,
|
|
31,
|
|
3,
|
|
#BPMCHANGE 183.25
|
|
1111,
|
|
1,
|
|
#BPMCHANGE 183.3
|
|
1111,
|
|
1,
|
|
#BPMCHANGE 182.6
|
|
07080708,
|
|
07080708,
|
|
07080708,
|
|
07080000,
|
|
#BPMCHANGE 184.3
|
|
500000000008000000000000500000000008000000000000,
|
|
500000000008000000000000500000000008000000000000,
|
|
500000000008000000000000600000000000000000000000,
|
|
#BPMCHANGE 183.4
|
|
000000000008000000000000000000000000000000000000,//41
|
|
|
|
#BPMCHANGE 182.7
|
|
#GOGOSTART
|
|
1111,
|
|
500000000000000000000008000000000000000000000000,
|
|
1111,
|
|
500000000000000000000008000000000000000000000000,
|
|
12,
|
|
12,
|
|
33,
|
|
4440,
|
|
1111,
|
|
500000000000000000000008000000000000000000000000,
|
|
10101007,
|
|
,
|
|
8,
|
|
2,
|
|
1110,
|
|
1111,//57
|
|
|
|
#GOGOEND
|
|
9009,
|
|
8,
|
|
#END
|
|
|
|
COURSE:Easy
|
|
LEVEL:1
|
|
BALLOON:7,6
|
|
SCOREINIT:1430
|
|
SCOREDIFF:1585
|
|
|
|
#START
|
|
#BARLINEOFF
|
|
,//1
|
|
|
|
#BARLINEON
|
|
#GOGOSTART
|
|
10001005,
|
|
000000000000000000000008000000000000000000000000,
|
|
#BPMCHANGE 183.4
|
|
10001005,
|
|
000000000000000000000008000000000000000000300000,
|
|
00030003,
|
|
00030000,
|
|
6,
|
|
000000000000000000000008000000000000000000000000,//9
|
|
|
|
#GOGOEND
|
|
1,
|
|
1,
|
|
11,
|
|
2,
|
|
11,
|
|
1,
|
|
11,
|
|
2,
|
|
1,
|
|
1,
|
|
11,
|
|
2,
|
|
#BPMCHANGE 183.15
|
|
11,
|
|
1,
|
|
500000000000000000000000000000000000000000000008,
|
|
,
|
|
#BPMCHANGE 182.5
|
|
3,
|
|
3,
|
|
3,
|
|
3,
|
|
#BPMCHANGE 183.25
|
|
11,
|
|
1,
|
|
#BPMCHANGE 183.3
|
|
11,
|
|
1,
|
|
#BPMCHANGE 182.6
|
|
000000500000000008000000000000500000000008000000,
|
|
000000500000000008000000000000500000000008000000,
|
|
000000500000000008000000000000500000000008000000,
|
|
000000500000000008000000000000000000000000000000,
|
|
#BPMCHANGE 184.3
|
|
500000000008000000000000500000000008000000000000,
|
|
500000000008000000000000500000000008000000000000,
|
|
500000000008000000000000600000000000000000000000,
|
|
#BPMCHANGE 183.4
|
|
000000000008000000000000000000000000000000000000,//41
|
|
|
|
#BPMCHANGE 182.7
|
|
#GOGOSTART
|
|
11,
|
|
500000000000000000000008000000000000000000000000,
|
|
11,
|
|
500000000000000000000008000000000000000000000000,
|
|
1,
|
|
1,
|
|
33,
|
|
600000000000000000000000000008000000000000000000,
|
|
11,
|
|
500000000000000000000008000000000000000000000000,
|
|
10001007,
|
|
,
|
|
8,
|
|
1,
|
|
11,
|
|
11,//57
|
|
|
|
#GOGOEND
|
|
9009,
|
|
8,
|
|
#END |