Files
ESE/01 Pop/Hatsukoi Ressha/Hatsukoi Ressha.tja
T
2023-06-15 19:05:10 -05:00

282 lines
9.2 KiB
Plaintext

//TJADB Project
TITLE:Hatsukoi Ressha
TITLEJA:初恋列車
SUBTITLE:--Kiyoshi Hikawa
BPM:114
WAVE:Hatsukoi Ressha.ogg
OFFSET:-4.006
DEMOSTART:52.555
COURSE:Oni
LEVEL:4
BALLOON:12
#START
100000000000000000000000000000000000000000000000,
#MEASURE 5/4
1000100000,
#MEASURE 7/4
#BPMCHANGE 100
500000000000000000000000000000000000000000000000000000000008000000000000000000000000000000000000,
#MEASURE 4/4
100000100100100000100000100000000000200200200200,
100000100100100000100000100000200000200000200000,
100000100100100000100000100000000000200200200200,
100000100100100000100000100000200000200000200000,
100000000000200000100100100000100000200000100000,
100000000000200000100100100000100000200200200200,
100000100000000000100000100000100100100000100000,
500000000000000000000000000000000008000000000000,
100000100100100000100000100000200200200000200000,
100000100100100000100000100000200000200000000000,
100000100100100000100000100000200200200000200000,
100000100100100000100000100000200000200000000000,
100000000000200000100000100100100000200000100000,
100000000000200000100000100100100000200000100000,
100000000000200000100000100100100000200000100000,
#MEASURE 2/4
100000000000100000000000,
#MEASURE 4/4
700000000000000000000000000000000000800000000000,
#GOGOSTART
000000100000100000100000100000200200200000200000,
000000100000100000100000100000200200200000200000,
000000100000100000100000100000200200200000200000,
500000000000000000000000000000000080000000000000,
100000200200200000100000100000200200200000100000,
100000200000100000200000100000200200200000200000,
100000200200200000100000100000200200200000100000,
100000200000100000200000100000200200100100200200,
100000000000300000000000300000000000300000000000,
100000000000200000100100100000100000300000300000,
300000000000000000000000500000000000000000000000,
000000000000000000000000000000000008000000000000,
#GOGOEND
100000000000200000100100100000100000200000100000,
100000000000200000100100100000100000200000200200,
100000000000200000100100100000100000200000100000,
100000000000200000100100100000100000200000100000,
100000000000100000000000100000100000100100100100,
#MEASURE 3/4
100000000000000000000000000000000000,
#MEASURE 5/4
100000000000000000000000000000000000000000000000,
#BPMCHANGE 90
500000000000000000000000000000000000000000000000000000000008,
#END
COURSE:Hard
LEVEL:3
BALLOON:8
SCOREINIT:800
SCOREDIFF:260
#START
100000000000000000000000000000000000000000000000,
#MEASURE 5/4
100000000000000000000000100000000000000000000000000000000000,
#MEASURE 7/4
#BPMCHANGE 100
500000000000000000000000000000000000000000000000000000000008000000000000000000000000000000000000,
#MEASURE 4/4
100000100000100000100000100000000000200000200000,
100000100100100000100000100000200000200000000000,
100000100000100000100000100000000000200000200000,
100000100100100000100000100000200000200000000000,
100000000000200000100000100000000000200000100000,
100000000000200000100000100000000000200000000000,
100000100000000000100000100000000000100000000000,
500000000000000000000000000000000800000000000000,
100000100100100000100000100000000000200000000000,
100000100100100000100000100000200000200000000000,
100000100100100000100000100000000000200000000000,
100000100100100000100000100000200000200000000000,
100000000000200000100000100000100000200000000000,
100000000000200000100000100000100000200000000000,
100000000000200000100000100000100000200000000000,
#MEASURE 2/4
100000100000100000100000,
#MEASURE 4/4
700000000000000000000000000000000800000000000000,
#GOGOSTART
000000100000000000100000100000000000200000200000,
000000100000100000100000100000000000200000000000,
000000100000000000100000100000000000100000000000,
500000000000000000000000000000000800000000000000,
100000200200200000100000100000200200200000100000,
100000200000100000200000100000000000000000000000,
100000200200200000100000100000200200200000100000,
100000200000100000200000100000000000000000000000,
300000000000300000000000300000000000300000000000,
300000000000200000100000100000100000300000300000,
300000000000000000000000500000000000000000000000,
000000000000000000000000000000000800000000000000,
#GOGOEND
#MEASURE 4/4
100000000000200000100000100000000000200000100000,
100000000000200000100000100000000000200000000000,
100000000000200000100000100000100000200000100000,
100000000000200000100000100000100000200000100000,
300000000000000000000000100000100000100000100000,
#MEASURE 3/4
100000000000000000000000000000000000,
#MEASURE 5/4
100000000000000000000000000000000000000000000000,
#BPMCHANGE 90
500000000000000000000000000000000000000000000000000000000008,
#END
COURSE:Normal
LEVEL:3
BALLOON:6
SCOREINIT:1270
SCOREDIFF:400
#START
100000000000000000000000000000000000000000000000,
#MEASURE 5/4
100000000000000000000000100000000000000000000000000000000000,
#MEASURE 7/4
#BPMCHANGE 100
500000000000000000000000000000000000000000000000000000000008000000000000000000000000000000000000,
#MEASURE 4/4
100000000000100000100000100000000000100000000000,
100000000000100000000000200000000000000000000000,
100000000000100000100000100000000000100000000000,
100000000000100000000000200000000000000000000000,
100000000000000000100000100000000000200000000000,
100000000000000000100000100000000000000000000000,
100000100000000000100000100000000000000000000000,
500000000000000000000000000000800000000000000000,
100000000000100000100000100000000000000000000000,
100000000000200000000000200000000000000000000000,
100000000000100000100000100000000000000000000000,
100000000000200000000000200000000000000000000000,
100000000000000000000000100000100000200000000000,
100000000000100000000000200000000000000000000000,
100000000000000000000000100000100000200000000000,
#MEASURE 2/4
100000000000100000000000,
#MEASURE 4/4
700000000000000000000000000000800000000000000000,
#GOGOSTART
000000100000100000000000100000000000200000000000,
000000100000100000000000100000000000200000000000,
000000100000100000000000100000000000200000000000,
500000000000000000000000000000800000000000000000,
100000000000000000100000100000000000000000100000,
100000000000100000000000100000000000200000000000,
100000000000000000100000100000000000000000100000,
100000000000100000000000100000000000000000000000,
300000000000300000000000300000000000300000000000,
300000000000000000000000100000100000100000100000,
300000000000000000000000500000000000000000000000,
000000000000000000000000000000000000000000000000,
000000000000000000800000000000000000000000000000,
#GOGOEND
#MEASURE 4/4
100000000000000000100000100000000000000000000000,
100000000000000000100000100000000000200000000000,
100000000000000000100000100000000000000000000000,
100000000000100000000000100000000000100000000000,
#MEASURE 3/4
100000000000000000000000000000000000,
#MEASURE 5/4
100000000000000000000000000000000000000000000000,
#BPMCHANGE 90
500000000000000000000000000000000000000000000000000000000008,
#END
COURSE:Easy
LEVEL:3
BALLOON:5
SCOREINIT:700
SCOREDIFF:350
#START
100000000000000000000000000000000000000000000000,
#MEASURE 5/4
100000000000000000000000100000000000000000000000000000000000,
#MEASURE 7/4
#BPMCHANGE 100
500000000000000000000000000000000000000000000000000000000008000000000000000000000000000000000000,
#MEASURE 4/4
100000000000100000000000100000000000000000000000,
100000000000200000000000100000000000200000000000,
100000000000100000000000100000000000000000000000,
100000000000200000000000100000000000200000000000,
100000000000000000000000100000000000000000000000,
100000000000000000000000100000000000000000000000,
100000100000000000000000100000000000000000000000,
500000000000000000000000000000800000000000000000,
100000000000000000000000100000000000100000000000,
100000000000200000000000200000000000000000000000,
100000000000000000000000100000000000100000000000,
100000000000200000000000200000000000000000000000,
100000000000200000000000100000000000200000000000,
100000000000100000000000100000000000000000000000,
100000000000200000000000100000000000200000000000,
#MEASURE 2/4
100000000000100000000000,
#MEASURE 4/4
700000000000000000000000000000800000000000000000,
#GOGOSTART
000000000000100000000000100000000000200000000000,
000000000000100000000000100000000000200000000000,
000000000000100000000000100000000000200000000000,
500000000000000000000000000000800000000000000000,
100000000000000000000000100000000000000000000000,
100000000000100000000000100000000000000000000000,
100000000000000000000000100000000000000000000000,
100000000000100000000000100000000000000000000000,
100000000000100000000000100000000000000000000000,
500000000000000000000000000000800000000000000000,
300000000000000000000000100000000000000000000000,
500000000000000000000000000000000000000000000000,
000000000000000000000000000000000000000000800000,
#GOGOEND
#MEASURE 4/4
000000000000000000000000000000000000000000000000,
100000000000200000000000100000000000200000000000,
100000000000000000000000100000000000000000000000,
100000000000000000000000100000000000000000000000,
#MEASURE 3/4
100000000000000000000000000000000000,
#MEASURE 5/4
100000000000000000000000000000000000000000000000,
#BPMCHANGE 90
500000000000000000000000000000000000000000000000000000000008,
#END