Files
ESE/01 Pop/Heart Slump Futari-bocchi/Heart Slump Futari-bocchi.tja
T
2023-06-15 19:15:39 -05:00

325 lines
4.1 KiB
Plaintext

//TJADB Project
TITLE:Heart Slump Futari-bocchi
TITLEJA:ハートスランプ二人ぼっち
SUBTITLE:--Hironobu Urata feat. Hiroshi Madoka/Detective! Night Scoop
SUBTITLEJA:「探偵!ナイトスクープ」のテーマ
BPM:126
WAVE:Heart Slump Futari-bocchi.ogg
OFFSET:-2.111
DEMOSTART:72.587
COURSE:Oni
LEVEL:7
SCOREINIT:750
SCOREDIFF:213
#START
3000300030400022,
10201120,
1010200020222020,
20201120,
2000021120202020,
10201120,
1010200020222020,
20201120,
3000300030402022,
10210121,
1020201000102011,
1020201110202011,
1020001010112000,
10210121,
3003003000102011,
1020201110222020,
2000200010102011,
2000102000002022,
2022200010102011,
2000102000002022,
2022200030003000,
3000201010112010,
0010201010112000,
1000201010112010,
1110201110002000,
10201022,
02200110,
10201024,
04404000,
11221022,
02200112,
10201024,
0040400040101011,
2011201021101011,
2011201021101010,
6,
000000000000000000000008000000000000000000000000,
#GOGOSTART
30303036,
000000000000000000000008000000000000000000100000,
1110111011111011,
0022022220202000,
30303036,
000000000000000000000008000000000000000000100000,
1110111011111011,
0022022220202010,
100000500000000000000000000008000000000000100000,
1110201011102010,
2000000022022020,
2222202020201010,
100000500000000000000000000008000000000000100000,
1110201011102010,
#GOGOEND
10201120,
1010200020222020,
20201120,
2000021120202020,
10201120,
1010200020222020,
20201120,
30303403,
03300000,
#END
COURSE:Hard
LEVEL:5
BALLOON:12
SCOREINIT:690
SCOREDIFF:208
#START
30303400,
10201120,
11201220,
10201120,
2000022220202000,
10201120,
11201220,
10201120,
30303400,
10210121,
10210121,
12211221,
22001020,
10210120,
3003003000102000,
11220022,
00001121,
2000002000002022,
2022200010102010,
2000002000002022,
2022200030003000,
30211221,
01211220,
10211001,
21210000,
10201022,
00000110,
10201024,
04404000,
11221022,
00000112,
10201024,
0040400040101011,
1011101000101011,
11011000,
9,
8,
#GOGOSTART
30303036,
000000000000000000000008000000000000000000300000,
03033011,
0022022020202000,
30303036,
000000000000000000000008000000000000000000300000,
03033011,
0022022020202010,
100000500000000000000000000008000000000000100000,
1110101011101010,
1,
00000011,
100000500000000000000000000008000000000000100000,
1110101011101010,
#GOGOEND
10201120,
11201220,
10201120,
2000022220202000,
10201120,
11201220,
10201120,
30303403,
03300000,
#END
COURSE:Normal
LEVEL:4
BALLOON:9
SCOREINIT:1000
SCOREDIFF:408
#START
30303300,
11,
1022,
2,
22,
11,
1022,
2,
30303300,
10010000,
10010000,
1111,
1,
10110000,
10110000,
1111,
10001110,
20020020,
00001110,
20020020,
0033,
30011011,
0011,
10011001,
10110000,
10001001,
,
10001015,
000000000000000000000008000000000000000000000000,
10001001,
,
10001015,
000000000000000000000008000000000000000000000000,
10110000,
10011000,
9,
8,
#GOGOSTART
30303036,
000000000000000000000008000000000000000000300000,
03033011,
000000500000000000000008000000000000000000000000,
30303036,
000000000000000000000008000000000000000000300000,
03033011,
000000500000000000000008000000000000100000000000,
500000000000000000000000000008000000000000000000,
1111,
1,
0001,
500000000000000000000000000008000000000000000000,
1111,
#GOGOEND
11,
1022,
2,
22,
11,
1022,
2,
30303303,
03300000,
#END
COURSE:Easy
LEVEL:3
BALLOON:6,3
SCOREINIT:880
SCOREDIFF:543
#START
3330,
1,
1011,
1,
11,
1,
1011,
1,
3330,
1,
1,
11,
1,
2,
2,
11,
1,
2002,
,
2002,
0033,
31,
1011,
11,
1,
11,
1,
10001005,
000000000000000000000008000000000000000000000000,
11,
1,
10001005,
000000000000000000000008000000000000000000000000,
1110,
1110,
9,
8,
#GOGOSTART
30303006,
000000000000000008000000000000000000000000300000,
03036000,
000000000000000000000008000000000000000000000000,
30303006,
000000000000000008000000000000000000000000300000,
03036000,
000000000000000000000008000000000000000000000000,
1,
1111,
1,
,
1,
1111,
#GOGOEND
1,
1011,
1,
11,
1,
1011,
1,
30303309,
0080,
#END