472 lines
5.6 KiB
Plaintext
472 lines
5.6 KiB
Plaintext
//TJADB Project
|
|
TITLE:Hello, Morning
|
|
TITLEJA:Hello, Morning
|
|
SUBTITLE:--Kizuna AI
|
|
SUBTITLEJA:Kizuna AI
|
|
BPM:160
|
|
WAVE:Hello, Morning.ogg
|
|
OFFSET:-1.589
|
|
DEMOSTART:76.214
|
|
|
|
COURSE:Edit
|
|
LEVEL:8
|
|
SCOREINIT:490
|
|
SCOREDIFF:125
|
|
|
|
|
|
#START
|
|
|
|
|
|
4,
|
|
,
|
|
2,
|
|
,
|
|
2,
|
|
,
|
|
2,
|
|
,
|
|
40120120,
|
|
12012010,
|
|
40120120,
|
|
12012010,
|
|
4222,
|
|
4222,
|
|
42224222,
|
|
000000000000000000000000201010200100200000000000,//16
|
|
|
|
#GOGOSTART
|
|
1212222020122012,
|
|
0210201022121000,
|
|
1212222020122012,
|
|
0120102112121000,
|
|
1212222020122012,
|
|
0210201022121000,
|
|
1222201222201222,
|
|
2012221120104000,
|
|
1221121120122012,
|
|
0212201022121000,
|
|
1212222020122012,
|
|
0122102112121000,
|
|
1212222020122012,
|
|
0212201022121000,
|
|
1222221222221222,
|
|
2212221120104000,//32
|
|
|
|
#GOGOEND
|
|
,
|
|
100000200000200000100000201010200100000000000000,
|
|
30002101,
|
|
01002010,
|
|
10002101,
|
|
0121,
|
|
10002101,
|
|
01002010,
|
|
10012010,
|
|
0010001120104010,
|
|
41121121,
|
|
1120101120101010,
|
|
41121121,
|
|
1120101120101010,
|
|
41212121,
|
|
41212121,
|
|
4020202040202211,
|
|
100000200000200000100000201010200100200000000000,//50
|
|
|
|
#GOGOSTART
|
|
1010222212102010,
|
|
0020101220121020,
|
|
1010222212102010,
|
|
0020102112121000,
|
|
1010222212102010,
|
|
0020101220121020,
|
|
3021103020203011,
|
|
2030201120104000,
|
|
1221121120102010,
|
|
0020101220121020,
|
|
1010222212102010,
|
|
0020102112121000,
|
|
1010222212102010,
|
|
0020101220121020,
|
|
3021103020203011,
|
|
200000300000200000100000201010200100200000000000,
|
|
1212222020122012,
|
|
0212201022121000,
|
|
1212222020122012,
|
|
0122102112121000,
|
|
1212222020122012,
|
|
0212201022121000,
|
|
1222221222221222,
|
|
2212221120101000,//74
|
|
|
|
#GOGOEND
|
|
|
|
|
|
#END
|
|
|
|
|
|
COURSE:Oni
|
|
LEVEL:7
|
|
SCOREINIT:590
|
|
SCOREDIFF:168
|
|
|
|
|
|
#START
|
|
|
|
|
|
3,
|
|
,
|
|
1,
|
|
,
|
|
1,
|
|
,
|
|
1,
|
|
,
|
|
3115,
|
|
000000000000000000000008000000000000000000000000,
|
|
3115,
|
|
000000000000000000000008000000000000000000000000,
|
|
3111,
|
|
1111,
|
|
11111111,
|
|
0000000022112000,//16
|
|
|
|
#GOGOSTART
|
|
1110200020112010,
|
|
0022201022101000,
|
|
1110200020122010,
|
|
0343,
|
|
1110200020112010,
|
|
0022201022101000,
|
|
1000221020001120,
|
|
2010221120104000,
|
|
2222222210102010,
|
|
0022201022101000,
|
|
1110200020122010,
|
|
0343,
|
|
1110200020112010,
|
|
0022201022101000,
|
|
1000221020001120,
|
|
2010221120104000,//32
|
|
|
|
#GOGOEND
|
|
,
|
|
1020201022110000,
|
|
30012021,
|
|
10012021,
|
|
10012021,
|
|
10012021,
|
|
21102021,
|
|
01012021,
|
|
21102021,
|
|
0010001120104010,
|
|
2010102010102011,
|
|
1020101020101011,
|
|
2010102010102011,
|
|
1020101020101011,
|
|
2010201020102011,
|
|
2010201020102011,
|
|
2020202020202022,
|
|
1020201022112000,//50
|
|
|
|
#GOGOSTART
|
|
1000222010102210,
|
|
0020100000002220,
|
|
1000222010102210,
|
|
0020100000002220,
|
|
1000222010102010,
|
|
0010222010000020,
|
|
1010201010201110,
|
|
2010201120104000,
|
|
2211221120102210,
|
|
0020100000002220,
|
|
1000222010102210,
|
|
0020100000002220,
|
|
1000222010102010,
|
|
0010222010000020,
|
|
1010201010201110,
|
|
2010201022112000,
|
|
1110200020112010,
|
|
0022201022101000,
|
|
1110200020122010,
|
|
0343,
|
|
1110200020112010,
|
|
0022201022101000,
|
|
1000221020001120,
|
|
2010221120101000,//74
|
|
|
|
#GOGOEND
|
|
|
|
|
|
#END
|
|
|
|
|
|
COURSE:Hard
|
|
LEVEL:5
|
|
SCOREINIT:560
|
|
SCOREDIFF:150
|
|
|
|
#START
|
|
3,
|
|
,
|
|
1,
|
|
,
|
|
1,
|
|
,
|
|
1,
|
|
,
|
|
3150,
|
|
000000000000000000000008000000000000000000000000,
|
|
3150,
|
|
000000000000000000000008000000000000000000000000,
|
|
3111,
|
|
1111,
|
|
11111111,
|
|
00001140,//16
|
|
|
|
#GOGOSTART
|
|
1110100020002010,
|
|
01122110,
|
|
1110100020002010,
|
|
0343,
|
|
1110100020002010,
|
|
01122110,
|
|
10221022,
|
|
1114,
|
|
500000000000000008000000200000000000200000100000,
|
|
01122110,
|
|
1110100020002010,
|
|
0343,
|
|
1110100020002010,
|
|
01122110,
|
|
10221022,
|
|
1114,//32
|
|
|
|
#GOGOEND
|
|
,
|
|
0001,
|
|
1021,
|
|
1021,
|
|
1021,
|
|
1021,
|
|
10102011,
|
|
01012010,
|
|
10102011,
|
|
01012021,
|
|
10112021,
|
|
10112021,
|
|
10112021,
|
|
10112021,
|
|
10202121,
|
|
21212120,
|
|
22222222,
|
|
1000000011104000,//50
|
|
|
|
#GOGOSTART
|
|
1000222010102010,
|
|
02100010,
|
|
1000222010102010,
|
|
02100010,
|
|
1000222010102010,
|
|
00221001,
|
|
10112011,
|
|
22101040,
|
|
1110111020102010,
|
|
02100010,
|
|
1000222010102010,
|
|
02100010,
|
|
1000222010102010,
|
|
00221001,
|
|
10112030,
|
|
30403340,
|
|
1110100020002010,
|
|
01122110,
|
|
1110100020002010,
|
|
0343,
|
|
1110100020002010,
|
|
01122110,
|
|
10221022,
|
|
1211,//74
|
|
|
|
#GOGOEND
|
|
,
|
|
#END
|
|
|
|
COURSE:Normal
|
|
LEVEL:4
|
|
BALLOON:23
|
|
|
|
#START
|
|
1,
|
|
,
|
|
1,
|
|
,
|
|
1,
|
|
,
|
|
1,
|
|
,
|
|
35,
|
|
000000000000000000000008000000000000000000000000,
|
|
,
|
|
,
|
|
39,
|
|
,
|
|
09000000,
|
|
8,//16
|
|
|
|
#GOGOSTART
|
|
10002001,
|
|
02,
|
|
10002001,
|
|
0111,
|
|
10002001,
|
|
02,
|
|
00111011,
|
|
1122,
|
|
500000000000000000000008000000000000000000100000,
|
|
02,
|
|
10002001,
|
|
0111,
|
|
10002001,
|
|
02,
|
|
00111011,
|
|
1122,//32
|
|
|
|
#GOGOEND
|
|
,
|
|
0001,
|
|
1001,
|
|
1001,
|
|
1002,
|
|
2001,
|
|
10101011,
|
|
01000020,
|
|
20202022,
|
|
02000010,
|
|
1001,
|
|
1001,
|
|
1002,
|
|
2001,
|
|
10101011,
|
|
01000020,
|
|
20202022,
|
|
0001,//50
|
|
|
|
#GOGOSTART
|
|
1112,
|
|
01100010,
|
|
1112,
|
|
01100020,
|
|
2011,
|
|
0220,
|
|
1122,
|
|
11100010,
|
|
1112,
|
|
01100010,
|
|
1112,
|
|
01100020,
|
|
2011,
|
|
0220,
|
|
1111,
|
|
20201110,
|
|
10002001,
|
|
02,
|
|
10002001,
|
|
0111,
|
|
10002001,
|
|
02,
|
|
00111011,
|
|
1122,//74
|
|
|
|
#GOGOEND
|
|
,
|
|
#END
|
|
|
|
COURSE:Easy
|
|
LEVEL:3
|
|
BALLOON:19,12,12,12,9,10,11,5
|
|
|
|
#START
|
|
1,
|
|
,
|
|
1,
|
|
,
|
|
1,
|
|
,
|
|
1,
|
|
,
|
|
35,
|
|
000000000000000000000008000000000000000000000000,
|
|
35,
|
|
000000000000000000000008000000000000000000000000,
|
|
39,
|
|
,
|
|
09000000,
|
|
8,//16
|
|
|
|
#GOGOSTART
|
|
10001005,
|
|
000000000000000000000000000008000000000000000000,
|
|
10001007,
|
|
00000800,
|
|
10001005,
|
|
000000000000000000000000000008000000000000000000,
|
|
0101,
|
|
0111,
|
|
10001005,
|
|
000000000000000000000000000008000000000000000000,
|
|
0101,
|
|
0111,
|
|
10001005,
|
|
000000000000000000000000000008000000000000000000,
|
|
0101,
|
|
0111,//32
|
|
|
|
#GOGOEND
|
|
,
|
|
0001,
|
|
1001,
|
|
1001,
|
|
1002,
|
|
2007,
|
|
,
|
|
08000070,
|
|
,
|
|
08000010,
|
|
1001,
|
|
1001,
|
|
1002,
|
|
2007,
|
|
,
|
|
08000070,
|
|
00000008,
|
|
0001,//50
|
|
|
|
#GOGOSTART
|
|
11,
|
|
0001,
|
|
11,
|
|
0001,
|
|
1011,
|
|
0220,
|
|
7,
|
|
00080010,
|
|
11,
|
|
0001,
|
|
11,
|
|
0001,
|
|
1011,
|
|
0220,
|
|
7,
|
|
08,
|
|
10001005,
|
|
000000000000000000000000000008000000000000000000,
|
|
10001007,
|
|
00000800,
|
|
10001005,
|
|
000000000000000000000000000008000000000000000000,
|
|
0101,
|
|
0011,//74
|
|
|
|
#GOGOEND
|
|
,
|
|
#END |