325 lines
4.3 KiB
Plaintext
325 lines
4.3 KiB
Plaintext
//TJADB Project
|
|
TITLE:Hikaru Nara
|
|
TITLEJA:光るなら
|
|
SUBTITLE:--Goose house/Your Lie in April
|
|
BPM:160
|
|
WAVE:Hikaru Nara.ogg
|
|
OFFSET:-1.660
|
|
DEMOSTART:55.643
|
|
|
|
COURSE:Oni
|
|
LEVEL:7
|
|
BALLOON:7
|
|
SCOREINIT:740
|
|
SCOREDIFF:198
|
|
|
|
|
|
#START
|
|
|
|
|
|
0000000000000011,
|
|
1000100010201120,
|
|
1110102000200011,
|
|
1010102000200011,
|
|
11210205,
|
|
000000000000000008000000100000000000200000000000,
|
|
1010200011102000,
|
|
10210202,
|
|
1110001110001110,
|
|
0020222011102010,
|
|
0000201110102010,
|
|
01210121,
|
|
0000201110102010,
|
|
01210121,
|
|
00201120,
|
|
1110200010102000,
|
|
1000201110102220,
|
|
0020002000202220,
|
|
1000200011102010,
|
|
01201207,
|
|
00080122,
|
|
01210120,
|
|
1010200011102000,
|
|
1010200010222000,
|
|
12102012,
|
|
01010100,
|
|
11010020,
|
|
11010120,
|
|
11010020,
|
|
11010120,
|
|
1010201110102011,
|
|
1010202011102000,
|
|
1010202011102000,
|
|
1010202011102000,
|
|
1110001110001110,
|
|
0011101022112020,
|
|
|
|
#GOGOSTART
|
|
1110202000111011,
|
|
2210202000102000,
|
|
1110202000102020,
|
|
0010200011201020,
|
|
1110202000111011,
|
|
2210202000102000,
|
|
1120102000102010,
|
|
1120102000201120,
|
|
1110202000111011,
|
|
2210202000100011,
|
|
1022202000102011,
|
|
2020112000202220,
|
|
1110202000111020,
|
|
0010102000102011,
|
|
11220122,
|
|
12101020,
|
|
1010200011102000,
|
|
1010200011111000,
|
|
1022102000001022,
|
|
12003040,
|
|
1110202210102011,
|
|
1010202210102220,
|
|
1110201122102060,
|
|
000000000000000000000000000000000000000000000008,
|
|
|
|
#GOGOEND
|
|
|
|
|
|
#END
|
|
|
|
|
|
COURSE:Hard
|
|
LEVEL:5
|
|
BALLOON:14,5,9,9
|
|
SCOREINIT:870
|
|
SCOREDIFF:245
|
|
|
|
|
|
#START
|
|
|
|
|
|
0000000000000011,
|
|
1122,
|
|
10120201,
|
|
01120201,
|
|
00110205,
|
|
000000000000000008000000100000000000200000000000,
|
|
1122,
|
|
10110207,
|
|
,
|
|
0008,
|
|
10201121,
|
|
01210121,
|
|
00201121,
|
|
01210121,
|
|
00201120,
|
|
10201120,
|
|
5,
|
|
000000000000000000000000000008000000000000000000,
|
|
10201121,
|
|
01201207,
|
|
00080122,
|
|
01210200,
|
|
10201120,
|
|
1000200010222000,
|
|
500000000000000000000000000000000008000000700000,
|
|
00000800,
|
|
11010020,
|
|
11010120,
|
|
11010020,
|
|
11010120,
|
|
11201120,
|
|
11221120,
|
|
11201120,
|
|
1010202011102000,
|
|
33033037,
|
|
0008,
|
|
|
|
#GOGOSTART
|
|
1110101000101020,
|
|
01220000,
|
|
1110101000202050,
|
|
000000000000000000000000000000000008000000000000,
|
|
1110101000102020,
|
|
01220000,
|
|
1110202000102050,
|
|
000000000000000000000000000000000008000000000000,
|
|
1110101000101020,
|
|
0010202000000011,
|
|
11120225,
|
|
000000000000000000000000000000000008000000000000,
|
|
1110101000201020,
|
|
0011102000000011,
|
|
11120125,
|
|
000000000000000000000000000000000008000000000000,
|
|
1212,
|
|
1211,
|
|
12120012,
|
|
12003040,
|
|
1110100022202000,
|
|
1110100022202000,
|
|
1110102000102060,
|
|
000000000000000000000000000000000000000000000008,
|
|
|
|
#GOGOEND
|
|
|
|
|
|
#END
|
|
|
|
|
|
COURSE:Normal
|
|
LEVEL:4
|
|
BALLOON:10,4,7,7
|
|
SCOREINIT:980
|
|
SCOREDIFF:335
|
|
|
|
|
|
#START
|
|
|
|
|
|
,
|
|
,
|
|
1100,
|
|
1100,
|
|
10110105,
|
|
000000000000000000000008000000000000000000000000,
|
|
1122,
|
|
10110207,
|
|
,
|
|
8,
|
|
10001011,
|
|
00220101,
|
|
00001011,
|
|
00220101,
|
|
0011,
|
|
2211,
|
|
5,
|
|
000000000000000000000000000008000000000000000000,
|
|
10001011,
|
|
00101107,
|
|
00080404,
|
|
,
|
|
11,
|
|
1022,
|
|
500000000000000000000000000000000008000000700000,
|
|
00000800,
|
|
10010000,
|
|
10010000,
|
|
20020000,
|
|
20020000,
|
|
1111,
|
|
1120,
|
|
2222,
|
|
2210,
|
|
30003007,
|
|
0008,
|
|
|
|
#GOGOSTART
|
|
10110111,
|
|
02220000,
|
|
10110225,
|
|
000000000000000000000000000000000008000000000000,
|
|
10110222,
|
|
02220000,
|
|
10220225,
|
|
000000000000000000000000000000000008000000000000,
|
|
10110111,
|
|
02220000,
|
|
10110225,
|
|
000000000000000000000000000000000008000000000000,
|
|
10110222,
|
|
01110000,
|
|
10220225,
|
|
000000000000000000000000000000000008000000000000,
|
|
1122,
|
|
1120,
|
|
10010010,
|
|
01004040,
|
|
1122,
|
|
1122,
|
|
30330336,
|
|
000000000000000000000000000000000000000000000008,
|
|
|
|
#GOGOEND
|
|
|
|
|
|
#END
|
|
|
|
|
|
COURSE:Easy
|
|
LEVEL:3
|
|
BALLOON:10,3,4,4,5
|
|
SCOREINIT:870
|
|
SCOREDIFF:430
|
|
|
|
|
|
#START
|
|
|
|
|
|
,
|
|
,
|
|
3,
|
|
3,
|
|
6,
|
|
000000000000000008000000000000000000000000000000,
|
|
33,
|
|
7,
|
|
,
|
|
8,
|
|
1011,
|
|
11,
|
|
1011,
|
|
11,
|
|
1011,
|
|
1122,
|
|
5,
|
|
000000000000000000000000000008000000000000000000,
|
|
1011,
|
|
10001007,
|
|
00080404,
|
|
,
|
|
11,
|
|
1022,
|
|
500000000000000000000000000000000008000000700000,
|
|
00000800,
|
|
1,
|
|
1,
|
|
2,
|
|
2,
|
|
11,
|
|
1110,
|
|
22,
|
|
2220,
|
|
30003007,
|
|
8,
|
|
|
|
#GOGOSTART
|
|
1100,
|
|
1100,
|
|
30030600,
|
|
000000000000000000000000000008000000000000000000,
|
|
2200,
|
|
2200,
|
|
30030600,
|
|
000000000000000000000000000008000000000000000000,
|
|
1100,
|
|
1100,
|
|
30040600,
|
|
000000000000000000000000000008000000000000000000,
|
|
1100,
|
|
1100,
|
|
30040700,
|
|
00000800,
|
|
1110,
|
|
2220,
|
|
3304,
|
|
4033,
|
|
1111,
|
|
2222,
|
|
30030600,
|
|
000000000000000000000000000000000000000000000008,
|
|
|
|
#GOGOEND
|
|
|
|
|
|
#END
|
|
|