Files
ESE/01 Pop/July 1st/July 1st.tja
T
2023-06-15 19:15:39 -05:00

432 lines
12 KiB
Plaintext

//TJADB Project
TITLE:July 1st
TITLEJA:July 1st
SUBTITLE:--Ayumi Hamasaki
BPM:128.012
WAVE:July 1st.ogg
OFFSET:-3.567
DEMOSTART:46.644
COURSE:Oni
LEVEL:4
#START
000000000000000000000000000000000000000000000000,
100000100000000000100000000000000000100000000000,
100000100000000000100000000000000000100000000000,
100000100000000000100000000000000000100000000000,
100000100000000000100000000000000000100000000000,
100000100000000000100000000000000000100000000000,
100000100000000000100000000000000000100000000000,
100000100000000000100000000000000000100000000000,
100000100000000000100000000000000000100000000000,
000000000000100100000100000000100000100000100000,
000000000000100100000100000000100000100000000000,
000000000000100100000100000000100000100000100000,
000000000000100100000100000000100000100000000000,
000000000000100100000100000000100000100000100000,
000000000000100100000100000000100000100000000000,
000000000000100100000100000000100000100000100000,
000000000000100100000100000000100000100000100100,
100000100000200000100100100000100000200000100100,
100000100000200000100100100000100000200000100100,
100000100000200000100100100000100000200000100100,
100000200000200000100100100000200000200000100100,
100000200000200000100100100000200000200000000000,
100000000000100000000000100000000000100000000000,
100000100000200000000000100000100000200000000000,
100000000000000000100100100000200000200000000000,
100000100000200000000000100000100000200000000000,
100000000000000000100100100000200000200000000000,
100000100100000000200000100100000100000000100000,
100000100000100000000000100000000100100000000000,
100000100000200000000000100000100000200000000000,
100000000100000000100000100000000000100000300000,
000000000000000000000000000000000000000000000000,
000000000000000000000000000000000000000000000000,
100000000000000000100000000000000000100000000000,
100000000000000000100000000000000000100000000000,
100000100000000000100000000000000000100000000000,
100000100000000000100000000000000000100000000000,
100000100000000000100000000000000000100000000000,
100000100000000000100000000000000000100000000000,
000000000000100100000100000000100000100000100000,
000000000000100100000100000000100000100000000000,
000000000000100100000100000000100000100000100000,
000000000000100100000100000000100000100000000000,
000000000000100100000100000000100000100000100000,
000000000000100100000100000000100000100000000000,
000000000000100100000100000000100000100000100000,
000000000000100100000100000000100000100000100100,
100000100000200000100100100000100000200000100100,
100000100000200000100100100000100000200000100100,
100000100000200000100100100000100000200000100100,
100000200000200000100100100000200000200000100100,
100000200000200000100100100000200000200000000000,
100000000000100000000000100000000000100000000000,
100000100000200000000000100000100000200000000000,
100000000000000000100100100000200000200000000000,
100000100000200000000000100000100000200000000000,
100000000000000000100100100000200000200000000000,
100000100100000000200000100100000100000000100000,
100000100000100000000000100000000100100000000000,
100000100000200000000000100000100000200000000000,
100000000100000000100000100000000000100000300000,
#END
COURSE:Hard
LEVEL:4
SCOREINIT:600
SCOREDIFF:140
#START
11010010,
11010010,
11010010,
11010010,
11010010,
11010010,
11010010,
11010010,
0000110100101010,
0000110100101000,
0000110100101010,
0000110100101000,
0000110100101010,
0000110100101000,
0000110100101010,
0000100300000000,
#BRANCHSTART p,75,90
#N
11201120,
11201120,
11201120,
12201220,
12201220,
1110,
#E
1010201110102000,
1010201110102000,
1010201110102000,
1010201110102000,
1010201110102000,
1110,
#M
1010201110102011,
1010201110102011,
1010201110102011,
1020201110202011,
1020201110202000,
1110,
#BRANCHSTART p,75,90
#N
11201120,
1000001110000000,
11201120,
1000001110000000,
1011000011010000,
11101000,
11201120,
1001001010001030,
,
#E
11201120,
1000001110202000,
11201120,
1000001110202000,
1011002011010000,
1010100010011000,
11201120,
1001001010001030,
,
#M
11221120,
1000001110202000,
11221120,
1000001110202000,
1011002011010020,
1010102010011020,
11121120,
1001001010001030,
,
#BRANCHSTART p,75,90
#N
,
10010010,
10010010,
11010010,
11010010,
11010010,
11010010,
0000110100101010,
0000110100101000,
0000110100101010,
0000110100101000,
0000110100101010,
0000110100101000,
0000110100101010,
0000100300000000,
#E
,
10010010,
10010010,
11010010,
11010010,
11010010,
11010010,
0000110100101010,
0000110100101000,
0000110100101010,
0000110100101000,
0000110100101010,
0000110100101000,
0000110100101010,
0000110100101000,
#M
,
10010010,
10010010,
11010010,
11010010,
11010010,
11010010,
0000110100101010,
0000110100101000,
0000110100101010,
0000110100101000,
0000110100101010,
0000110100101000,
0000110100101010,
0000110100101011,
#BRANCHSTART p,75,90
#N
11201120,
11201120,
11201120,
12201220,
12201220,
1110,
#E
1010201110102000,
1010201110102000,
1010201110102000,
1010201110102000,
1010201110102000,
1110,
#M
1010201110102011,
1010201110102011,
1010201110102011,
1020201110202011,
1020201110202000,
1110,
#BRANCHSTART p,75,90
#N
11201120,
1000001110000000,
11201120,
1000001110000000,
1011000011010000,
11101000,
11201120,
1001001010001030,
#E
11201120,
1000001110202000,
11201120,
1000001110202000,
1011002011010000,
1010100010011000,
11201120,
1001001010001030,
#M
11221120,
1000001110202000,
11221120,
1000001110202000,
1011002011010020,
1010102010011020,
11121120,
1001001010010030,
#BRANCHEND
#END
COURSE:Normal
LEVEL:3
SCOREINIT:1050
SCOREDIFF:300
#START
000000000000000000000000000000000000000000000000,
100000000000000000100000000000000000000000000000,
100000000000000000100000000000000000000000000000,
100000000000000000100000000000000000000000000000,
100000000000000000100000000000000000000000000000,
100000100000000000200000000000000000000000000000,
100000100000000000200000000000000000000000000000,
100000100000000000200000000000000000000000000000,
100000100000000000200000000000000000000000000000,
000000000000100000000000000000100000100000000000,
000000000000100000000000000000100000100000000000,
000000000000100000000000000000100000100000000000,
000000000000100000000000000000100000100000000000,
000000000000100000000000000000100000200000000000,
000000000000100000000000000000100000200000000000,
000000000000100000000000000000100000200000000000,
000000000000100000000000000000000000000000000000,
100000000000200000000000100000000000000000000000,
100000000000200000000000100000000000000000000000,
100000000000200000000000100000000000000000000000,
100000000000200000000000100000000000200000000000,
100000000000200000000000100000000000000000000000,
500000000000000000000000000080000000000000000000,
100000000000100000000000100000000000000000000000,
100000000000000000100000100000200000200000000000,
100000000000100000000000100000000000000000000000,
100000000000000000100000100000200000200000000000,
100000000000000000000000100000000000000000000000,
100000000000100000000000100000000000000000000000,
100000100000100000000000100000100000100000000000,
100000100000100000000000100000000000000000300000,
000000000000000000000000000000000000000000000000,
000000000000000000000000000000000000000000000000,
100000000000000000100000000000000000000000000000,
100000000000000000100000000000000000000000000000,
100000100000000000200000000000000000000000000000,
100000100000000000200000000000000000000000000000,
100000100000000000200000000000000000000000000000,
100000100000000000200000000000000000000000000000,
000000000000100000000000000000100000100000000000,
000000000000100000000000000000100000100000000000,
000000000000100000000000000000100000100000000000,
000000000000100000000000000000100000100000000000,
000000000000100000000000000000100000200000000000,
000000000000100000000000000000100000200000000000,
000000000000100000000000000000100000200000000000,
000000000000100000000000000000000000000000000000,
100000000000200000000000100000000000000000000000,
100000000000200000000000100000000000000000000000,
100000000000200000000000100000000000000000000000,
100000000000200000000000100000000000200000000000,
100000000000200000000000100000000000000000000000,
500000000000000000000000000080000000000000000000,
100000000000100000000000100000000000000000000000,
100000000000000000100000100000200000200000000000,
100000000000100000000000100000000000000000000000,
100000000000000000100000100000200000200000000000,
100000000000000000000000100000000000000000000000,
100000000000100000000000100000000000000000000000,
100000100000100000000000100000100000100000000000,
100000100000100000000000100000000000000000300000,
#END
COURSE:Easy
LEVEL:3
SCOREINIT:920
SCOREDIFF:290
#START
000000000000000000000000000000000000000000000000,
100000000000000000100000000000000000000000000000,
100000000000000000100000000000000000000000000000,
100000000000000000100000000000000000000000000000,
100000000000000000100000000000000000000000000000,
100000000000000000200000000000000000000000000000,
100000000000000000200000000000000000000000000000,
100000000000000000200000000000000000000000000000,
100000000000000000200000000000000000000000000000,
000000000000100000000000000000100000100000000000,
000000000000100000000000000000100000100000000000,
000000000000100000000000000000100000100000000000,
000000000000100000000000000000100000100000000000,
000000000000100000000000000000200000200000000000,
000000000000100000000000000000100000100000000000,
000000000000100000000000000000200000200000000000,
000000000000100000000000000000000000000000000000,
100000000000100000000000200000000000000000000000,
100000000000100000000000200000000000000000000000,
100000000000100000000000200000000000000000000000,
100000000000100000000000200000000000000000000000,
100000000000100000000000200000000000000000000000,
500000000000000000000000800000000000000000000000,
100000000000200000000000100000000000000000000000,
100000000000000000100000100000000000000000000000,
100000000000200000000000100000000000000000000000,
100000000000000000100000100000000000000000000000,
100000000000000000000000100000000000000000000000,
100000000000200000000000100000000000000000000000,
100000000000000000000000100000000000000000000000,
100000000000200000000000100000000000000000000000,
300000000000000000000000000000000000000000000000,
000000000000000000000000000000000000000000000000,
100000000000000000000000000000000000000000000000,
100000000000000000000000000000000000000000000000,
100000000000000000100000000000000000000000000000,
100000000000000000100000000000000000000000000000,
100000000000000000100000000000000000000000000000,
100000000000000000100000000000000000000000000000,
000000000000100000000000000000100000100000000000,
000000000000100000000000000000100000100000000000,
000000000000100000000000000000100000100000000000,
000000000000100000000000000000100000100000000000,
000000000000100000000000000000200000200000000000,
000000000000100000000000000000100000100000000000,
000000000000100000000000000000200000200000000000,
000000000000100000000000000000000000000000000000,
100000000000100000000000200000000000000000000000,
100000000000100000000000200000000000000000000000,
100000000000100000000000200000000000000000000000,
100000000000100000000000200000000000000000000000,
100000000000100000000000200000000000000000000000,
500000000000000000000000800000000000000000000000,
100000000000200000000000100000000000000000000000,
100000000000000000100000100000000000000000000000,
100000000000200000000000100000000000000000000000,
100000000000000000100000100000000000000000000000,
100000000000000000000000100000000000000000000000,
100000000000200000000000100000000000000000000000,
100000000000000000000000100000000000000000000000,
100000000000200000000000100000000000000000000000,
300000000000000000000000000000000000000000000000,
#END