Files
ESE/01 Pop/Kanden/Kanden.tja
T
2023-01-17 00:45:18 -05:00

225 lines
7.9 KiB
Plaintext
Raw Blame History

This file contains ambiguous Unicode characters
This file contains Unicode characters that might be confused with other characters. If you think that this is intentional, you can safely ignore this warning. Use the Escape button to reveal them.
//TJADB Project
TITLE:Kanden
TITLEJA:感電
SUBTITLE:--Kenshi Yonezu/MIU404
SUBTITLEJA:米津玄師 / TBS系金曜ドラマ「MIU404」主題歌
BPM:103
WAVE:Kanden.ogg
OFFSET:-2.455
DEMOSTART:63.33
COURSE:Oni
LEVEL:8
BALLOON:17,9
SCOREINIT:860
SCOREDIFF:243
#START
300100201001100101201000,
100100201001100101201000,
100100201001100101201001,
100000100010200010000050000000000800000000400000,
300100201001100101201000,
100100201001100101201000,
100100201001100101201020,
200020202020500000000000000008000000100010000020,
100000201002100100201002,
100100201002100100202100,
100100201002100100201002,
100203003003000400101002,
100000201002100100201002,
100100201002100100202100,
100100200202100100202202,
100000200020200020200050000000000800000000000000,
100200101200100200101200,
100200101200300300400400,
100200201202100100201202,
100202201202100100202202,
100200101200100200101200,
100202100202101202101200,
100200102002100202102202,
100202100202100200201202,
100202100200100101000100,
7008,
400202202003003000000000,
#GOGOSTART
300000201102100100201002,
100100200202100100201002,
100100200202100202100200,
100202102202200100200200,
300000201102100100201202,
100100200202100100201002,
100100202202100202100101,
200000200020100000200050000000000800000000000000,
#GOGOEND
100102200102200201100201,
100000100020200000200050000000000800000000000000,
100001100101002100201100,
200001201200000111100000,
700000000801000000000000,
#END
COURSE:2
LEVEL:4
BALLOON:11,14,14
SCOREINIT:1240
SCOREDIFF:460
#START
300000000000100000000000100000100000100000000000,
100000000000100000000000100000100000100000000000,
100000000000100000000000100000100000100000000000,
100000100000100000000050000000000800000000400000,
300000000000100000000000100000100000100000000000,
100000000000100000000000100000100000100000000000,
100000000000100000000000100000100000100000000000,
700000000000000000000000000000000000800000000000,
100000000000200000000000100000100000200000000000,
100000000000200000000000100000000000000000000000,
100000100000200000000000100000100000200000000000,
500000000000000000000008000000400000000000000000,
100000000000200000000000100000100000200000000000,
100000000000200000000000100000000000000000000000,
100000100000200000000000100000100000200000000000,
100000100000200000000050000000000800000000000000,
100000000000100000000000200000000000200000000000,
100000000000100000000000300000300000400000400000,
100000000000200000000000100000000000200000000000,
100000200000100000200000100000000000400000000000,
100000100000100000000000200000200000200000000000,
100000200000100000200000100000200000100000000000,
100000000000200000000000100000000000200000000000,
100000000000200000000000500000000008000000000000,
100000000000200000000000000000200000200000200000,
900000000000000000000000000000000000000000000000,
800000000000000000000000000000000000000000000000,
#GOGOSTART
300000000000100000100000100000000000200000000000,
100000000000100000100000100000000000200000000000,
100000100000200000000000100000100000200000000000,
100000200000100000200000100000000000100000000000,
300000000000100000100000100000000000200000200000,
100000000000100000100000100000000000200000000000,
100000000000200000200000100000100000200000000000,
100000200000100000200000500000000008000000000000,
#GOGOEND
100000000000100000200000100000000000200000000000,
100000000000100000200000500000000008000000000000,
100000000000100000100000000000000000000000200000,
200000000000200000200000000000700000000000000000,
000000000000000000000000800000000000000000000000,
000000000000000000000000000000000000000000000000,
#END
COURSE:1
LEVEL:2
BALLOON:8,8,11,11
SCOREINIT:1440
SCOREDIFF:950
#START
300000000000000000000000100000000000100000000000,
100000000000000000000000100000000000100000000000,
100000000000000000000000100000000000100000000000,
700000000000000000000000000000000000800000000000,
300000000000000000000000100000000000100000000000,
100000000000000000000000100000000000100000000000,
100000000000000000000000100000000000100000000000,
700000000000000000000000000000000000800000000000,
100000000000000000000000100000000000000000000000,
100000000000100000000000100000000000000000000000,
100000100000000000000000100000100000000000000000,
500000000000000000000008000000000000000000000000,
100000000000000000000000100000000000000000000000,
100000000000100000000000200000000000000000000000,
100000100000000000000000200000200000000000000000,
500000000000000000000000000000000800000000000000,
100000000000000000000000100000000000000000000000,
100000000000000000000000100000000000100000000000,
100000000000000000000000200000000000000000000000,
100000000000100000000000200000000000000000000000,
100000000000000000000000100000000000000000000000,
100000000000100000000000100000000000100000000000,
100000000000000000000000200000000000000000000000,
100000000000000000000000200000000000000000000000,
100000000000200000000000000000000000200000000000,
900000000000000000000000000000000000000000000000,
800000000000000000000000000000000000000000000000,
#GOGOSTART
300000000000100000000000100000000000200000000000,
100000000000100000000000200000000000200000000000,
100000000000200000000000100000000000200000000000,
500000000000000000000000000000000008000000000000,
300000000000100000000000100000000000200000000000,
100000000000100000000000200000000000200000000000,
100000000000200000000000100000000000200000000000,
500000000000000000000000000000000008000000000000,
#GOGOEND
100000000000100000000000100000000000000000000000,
200000000000200000000000200000000000000000000000,
100000000000100000100000000000000000000000000000,
200000000000200000200000000000700000000000000000,
000000000000000000000000800000000000000000000000,
000000000000000000000000000000000000000000000000,
#END
COURSE:0
LEVEL:1
BALLOON:6,6,6,9,8
SCOREINIT:1550
SCOREDIFF:1510
#START
300000000000000000000000000000000000000000000000,
100000000000000000000000100000000000000000000000,
100000000000000000000000000000000000000000000000,
700000000000000000000000000000800000000000000000,
300000000000000000000000000000000000000000000000,
100000000000000000000000100000000000000000000000,
100000000000000000000000000000000000000000000000,
700000000000000000000000000000800000000000000000,
100000000000000000000000100000000000000000000000,
100000000000000000000000000000000000000000000000,
100000000000000000000000100000000000000000000000,
500000000000000000000008000000000000000000000000,
100000000000000000000000100000000000000000000000,
100000000000000000000000000000000000000000000000,
100000000000000000000000100000000000000000000000,
500000000000000000000000000000080000000000000000,
100000000000000000000000100000000000000000000000,
100000000000000000000000100000000000100000000000,
100000000000000000000000200000000000000000000000,
700000000000000000000000000000800000000000000000,
100000000000000000000000100000000000000000000000,
100000000000100000000000100000000000000000000000,
100000000000000000000000200000000000000000000000,
200000000000000000000000000000000000000000000000,
100000000000000000000000200000000000000000000000,
900000000000000000000000000000000000000000000000,
800000000000000000000000000000000000000000000000,
#GOGOSTART
300000000000100000000000100000000000000000000000,
100000000000100000000000100000000000000000000000,
100000000000000000000000200000000000000000000000,
500000000000000000000000000008000000000000000000,
300000000000100000000000100000000000000000000000,
100000000000100000000000100000000000000000000000,
100000000000000000000000200000000000000000000000,
500000000000000000000000000008000000000000000000,
#GOGOEND
100000000000000000000000100000000000000000000000,
200000000000000000000000200000000000000000000000,
100000000000000000000000000000000000000000000000,
200000000000000000000000000000700000000000000000,
000000000000000000000000800000000000000000000000,
000000000000000000000000000000000000000000000000,
#END