569 lines
24 KiB
Plaintext
569 lines
24 KiB
Plaintext
//TJADB Project
|
|
TITLE:Karma
|
|
TITLEJA:カルマ
|
|
SUBTITLE:--BUMP OF CHICKEN/Tales of the Abyss
|
|
SUBTITLEJA:「テイルズ オブ ジ アビス」テーマソング
|
|
BPM:194
|
|
WAVE:Karma.ogg
|
|
OFFSET:-1.543
|
|
DEMOSTART:50.937
|
|
|
|
COURSE:Oni
|
|
LEVEL:7
|
|
SCOREINIT:350
|
|
SCOREDIFF:100
|
|
|
|
|
|
#START
|
|
|
|
|
|
100000000000200000000000200000000000200000000000,
|
|
100000200000100000000000200000000000100000200000,
|
|
100000000000200000000000200000000000200000000000,
|
|
100000200000100000000000200000000000100000200000,
|
|
100000000000200000000000100000200000100000100000,
|
|
200000000000100000200000200000200000100000000000,
|
|
100000000000200000000000200000100100100000200000,
|
|
100000100000100000100000200000000000000000000000,
|
|
100000000000200000000000100100100000100000200000,
|
|
000000100000000000200000000000100000000000100000,
|
|
000000100000100100100000100000100000000000200000,
|
|
000000200000200000200000200000200000000000000000,
|
|
100000000000200000000000100100100000100000200000,
|
|
000000100000000000200000000000100000000000100000,
|
|
000000100000100100100000100000100000000000200000,
|
|
000000200000200000200000200000000000000000000000,
|
|
100000000000100100100000200000000000100000000000,
|
|
100000100000100000000000200000000000000000000000,
|
|
100000000000200200200000200000000000100000000000,
|
|
100000100000100000000000100000000000000000000000,
|
|
100000000000100100100000100000000000200000200000,
|
|
000000200000200000000000100000000000000000100000,
|
|
100000000000200000200000000000200000000000100000,
|
|
100000000000000000100000100000000000000000000000,
|
|
100000000000200200200000200000000000200000000000,
|
|
100000100000100000000000200000000000000000000000,
|
|
100000000000200200200000200000000000200000000000,
|
|
100000100000100000000000100000000000000000000000,
|
|
100000000000100100100000100000100000000000200000,
|
|
000000200000000000100100100000000000200000000000,
|
|
100000100000200000100000000000100000200000100000,
|
|
000000000000200000100000100000100000200000000000,
|
|
100000000000200000100000000000200000100000100000,
|
|
000000000000200000100000100000100000200000000000,
|
|
100000000000100000200000000000100000200000200000,
|
|
000000100000200000200000100100100000100000000000,
|
|
100000000000200000100000000000200000200000100000,
|
|
000000100000200000100000100100100000200000000000,
|
|
100000100000200000000000100000100000200000000000,
|
|
200000100000100000200000100100100000100000000000,
|
|
|
|
#GOGOSTART
|
|
100000100000200000100000100000100000200000100000,
|
|
100000100000200000100000100000100000200000000000,
|
|
100000200000200000200000100000200000200000200000,
|
|
100000200000200000200000100000200000200000000000,
|
|
100000100000200000100000100100100000200000000000,
|
|
100000100000200000100000100100100000200000000000,
|
|
100000000000100000100000000000200000200000000000,
|
|
000000300000300000000000100100100000200000000000,
|
|
100000100000200000100000100000100000200000100000,
|
|
100000100000200000100000100000100000200000000000,
|
|
100000200000200000200000100000200000200000200000,
|
|
100000200000200000200000100000200000200000000000,
|
|
100000100000200000100000100100100000200000000000,
|
|
100000100000200000100000100100100000200000000000,
|
|
100000000000100000100000000000200000200000000000,
|
|
000000300000300000000000100100100000200000000000,
|
|
100000000000200000100000100000100000200000100000,
|
|
100000100000200000100000100100100000100000100000,
|
|
|
|
#GOGOEND
|
|
000000000000100000100000100000000000100000000000,
|
|
100000200000100000000000200000000000100000200000,
|
|
100000000000100000100000100000000000100000000000,
|
|
100000200000100000000000200000000000100000200000,
|
|
100000000000100000100000200000200000100000000000,
|
|
200000000000200000200000100000200000100000000000,
|
|
200000000000100000000000200000100100100000200000,
|
|
100000000000000000000000100000200000000000000000,
|
|
100000000000100000000000200000000000100000200000,
|
|
100000200000100000000000200000000000000000000000,
|
|
100000000000100000000000200000000000100000200000,
|
|
100000200000100000000000200000000000000000000000,
|
|
100000000000100000000000200000000000100000000000,
|
|
100000100000100000000000200000000000200000000000,
|
|
100000000000100000100000100000100000100000100000,
|
|
200000000000000000000000000000000000000000000000,
|
|
200000000000000000000000200000000000200000000000,
|
|
000000000000000000000000000000000000000000000000,
|
|
200000000000000000000000200000000000000000000000,
|
|
200000000000200000000000000000000000000000000000,
|
|
200000000000000000000000200000000000000000000000,
|
|
200000000000000000000000200000000000000000000000,
|
|
100000000000100000100000000000500000000000000000,
|
|
000000000000000000000008000000000000000000000000,
|
|
|
|
#GOGOSTART
|
|
100000100000200000100000100000100000200000100000,
|
|
100000100000200000100000100100100000200000000000,
|
|
100000200000200000200000100000200000200000200000,
|
|
100000200000200000200000100100100000200000000000,
|
|
100000100000200000100000100100100000200000000000,
|
|
100000100000200000100000100100100000200000000000,
|
|
100000000000100000100000000000200000200000000000,
|
|
000000300000300000000000100100100000200000000000,
|
|
100000100000200000100000100000100000200000100000,
|
|
100000100000200000100000100100100000200000000000,
|
|
100000200000200000200000100000200000200000200000,
|
|
100000200000200000200000100100100000200000000000,
|
|
100000100000200000100000100100100000200000000000,
|
|
100000100000200000100000100100100000200000000000,
|
|
100000000000100000100000000000200000200000000000,
|
|
000000300000300000000000100100100000200000000000,
|
|
100000000000200000200000100000100000200000000000,
|
|
100000000000200000200000100000100000200000000000,
|
|
100000100000100000100000200000200000200000200000,
|
|
100000100000100000100000200000200000200000000000,
|
|
100000000000000000000000200000100000100000200000,
|
|
100100100000200000100000100100100000200000000000,
|
|
100000100000200000100000100000200000100000200000,
|
|
000000100000000000200000000000100000000000100000,
|
|
000000100000100100100000100000100000000000200000,
|
|
000000200000200000200000200000200000000000000000,
|
|
100100100000200000000000100100200000100000200000,
|
|
000000100000000000200000000000100000000000100000,
|
|
000000100000100100100000100000100000000000200000,
|
|
000000200000200000200000200000200000000000000000,
|
|
|
|
#GOGOEND
|
|
100000100000200000100000100000200000100000200000,
|
|
000000100000000000200000000000100000000000100000,
|
|
000000100000100100100000100000100000000000200000,
|
|
000000200000200000200000200000200000000000000000,
|
|
100100100000200000000000100100200000100000200000,
|
|
000000100000000000200000000000100000000000100000,
|
|
000000100000100100100000100000100000000000200000,
|
|
000000300000300000300000400000000000000000000000,
|
|
|
|
|
|
#END
|
|
|
|
|
|
COURSE:Hard
|
|
LEVEL:5
|
|
BALLOON:9
|
|
SCOREINIT:460
|
|
SCOREDIFF:100
|
|
|
|
|
|
#START
|
|
|
|
|
|
100000000000200000000000200000000000200000000000,
|
|
100000000000200000000000100000000000000000000000,
|
|
100000000000200000000000200000000000200000000000,
|
|
100000000000200000000000100000000000000000000000,
|
|
100000000000200000000000200000000000200000000000,
|
|
100000000000200000000000100000000000000000000000,
|
|
100000000000200000000000100000000000200000000000,
|
|
100000100000100000100000100000000000000000000000,
|
|
100000000000200000000000100000000000100000100000,
|
|
000000100000000000200000000000000000000000100000,
|
|
000000100000100000100000100000100000000000200000,
|
|
000000200000200000200000200000200000000000000000,
|
|
100000000000200000000000100000000000100000100000,
|
|
000000100000000000200000000000000000000000100000,
|
|
000000100000100000100000100000100000000000200000,
|
|
000000200000200000200000200000000000000000000000,
|
|
100000000000100000000000200000000000100000000000,
|
|
100000000000200000000000200000000000000000000000,
|
|
100000000000100000000000200000000000100000000000,
|
|
100000000000100000000000100000000000000000000000,
|
|
100000000000100000000000100000000000200000200000,
|
|
000000200000200000000000100000000000000000100000,
|
|
100000000000200000200000000000200000000000100000,
|
|
100000000000000000100000100000000000000000000000,
|
|
100000000000100000000000200000000000100000000000,
|
|
100000000000200000000000200000000000000000000000,
|
|
100000000000100000000000200000000000100000000000,
|
|
100000000000100000000000100000000000000000000000,
|
|
100000000000100000000000100000100000000000200000,
|
|
000000200000000000100000100000000000200000000000,
|
|
100000100000000000100000000000100000000000100000,
|
|
000000000000200000000000100000100000100000000000,
|
|
100000000000100000100000000000200000200000200000,
|
|
000000000000100000100000100000100000100000000000,
|
|
100000000000100000100000000000200000200000200000,
|
|
000000200000200000200000200000100000100000000000,
|
|
100000000000100000100000000000200000200000200000,
|
|
000000100000100000100000100000100000100000000000,
|
|
100000000000100000000000200000000000200000000000,
|
|
100000000000200000000000200000000000000000000000,
|
|
#GOGOSTART
|
|
300000000000300000000000300000000000600000000000,
|
|
000000000000000000800000000000000000100000100000,
|
|
200000000000000000100000200000000000000000200000,
|
|
100000100000100000000000200000000000000000000000,
|
|
100000000000200000000000100000100000000000100000,
|
|
000000000000200000000000100000100000000000000000,
|
|
100000000000100000100000000000200000200000000000,
|
|
000000300000300000000000000000000000000000000000,
|
|
300000000000300000000000300000000000600000000000,
|
|
000000000000000000800000000000000000100000100000,
|
|
200000000000000000100000200000000000000000200000,
|
|
100000100000100000000000200000000000000000000000,
|
|
100000000000200000000000100000000000100000100000,
|
|
000000000000200000000000100000000000100000000000,
|
|
100000000000100000100000000000200000200000000000,
|
|
000000300000300000000000100000100000100000000000,
|
|
100000000000200000000000100000000000200000000000,
|
|
100000000000300000000000300000000000000000000000,
|
|
#GOGOEND
|
|
100000000000100000100000100000000000100000000000,
|
|
100000000000100000100000200000000000000000000000,
|
|
100000000000100000100000200000000000100000000000,
|
|
200000000000100000000000200000000000100000000000,
|
|
100000000000100000100000100000000000100000000000,
|
|
100000000000100000100000200000000000000000000000,
|
|
100000000000100000100000200000000000000000100000,
|
|
100000000000100000000000100000100000000000000000,
|
|
100000000000200000000000100000000000000000000000,
|
|
100000000000200000000000100000000000000000000000,
|
|
100000000000200000000000100000000000200000000000,
|
|
100000000000100000000000100000000000100000000000,
|
|
100000000000000000000000200000000000200000000000,
|
|
100000000000100000000000200000000000200000000000,
|
|
100000100000100000100000100000100000100000100000,
|
|
200000000000000000000000000000000000000000000000,
|
|
200000000000000000000000200000000000200000000000,
|
|
000000000000000000000000000000000000000000000000,
|
|
200000000000000000000000200000000000000000000000,
|
|
200000000000200000000000000000000000000000000000,
|
|
200000000000000000000000200000000000000000000000,
|
|
200000000000000000000000200000000000000000000000,
|
|
100000000000100000100000000000500000000000000000,
|
|
000000000000800000000000000000000000000000000000,
|
|
#GOGOSTART
|
|
300000000000300000000000300000000000600000000000,
|
|
000000000000000000800000000000000000100000100000,
|
|
200000000000000000100000200000000000000000200000,
|
|
100000100000100000000000200000000000000000000000,
|
|
100000100000200000000000100000100000000000100000,
|
|
000000000000200000000000100000100000100000000000,
|
|
100000000000100000100000000000200000200000000000,
|
|
000000300000300000000000000000000000000000000000,
|
|
300000000000300000000000300000000000600000000000,
|
|
000000000000000000800000000000000000100000100000,
|
|
200000000000000000100000200000000000000000200000,
|
|
100000100000100000000000200000000000000000000000,
|
|
100000100000200000000000100000000000100000100000,
|
|
000000000000200000000000100000100000100000000000,
|
|
100000000000100000100000000000200000200000000000,
|
|
000000300000300000000000100000100000100000000000,
|
|
100000000000200000000000100000000000200000000000,
|
|
100000000000000000000000400000000000000000000000,
|
|
600000000000000000000000000000000000000000800000,
|
|
000000000000000000000000100000100000200000000000,
|
|
100000000000000000000000100000000000100000000000,
|
|
100000100000100000100000100000100000100000100000,
|
|
500000000000000000000000000000000000000000000000,
|
|
000000000000000000800000000000000000000000100000,
|
|
000000100000100000100000100000100000000000200000,
|
|
000000200000200000200000200000200000000000000000,
|
|
600000000000000000000000000000000000000000000000,
|
|
000000000000000000000000000000000000000000800000,
|
|
000000000000700000000000000000000000000000000000,
|
|
000000000000000000000000000000800000000000000000,
|
|
#GOGOEND
|
|
100000000000200000000000100000000000100000100000,
|
|
000000100000000000200000000000000000000000100000,
|
|
000000100000100000100000100000100000000000200000,
|
|
000000200000200000200000200000200000000000000000,
|
|
100000000000200000000000100000000000100000100000,
|
|
000000100000000000200000000000000000000000100000,
|
|
000000100000100000100000100000100000000000200000,
|
|
000000300000300000300000300000000000000000000000,
|
|
|
|
|
|
#END
|
|
|
|
|
|
COURSE:Normal
|
|
LEVEL:5
|
|
BALLOON:7,6
|
|
SCOREINIT:780
|
|
SCOREDIFF:170
|
|
|
|
|
|
#START
|
|
|
|
|
|
100000000000000000000000100000000000000000000000,
|
|
100000000000000000000000100000000000000000000000,
|
|
100000000000000000000000100000000000000000000000,
|
|
300000000000000000000000000000000000000000000000,
|
|
200000000000000000000000200000000000000000000000,
|
|
200000000000000000000000200000000000000000000000,
|
|
200000000000000000000000200000000000000000000000,
|
|
400000000000000000000000000000000000000000000000,
|
|
100000000000000000000000000000000000000000000000,
|
|
100000000000000000000000000000000000000000000000,
|
|
100000000000100000000000100000000000000000000000,
|
|
100000000000100000000000100000000000000000000000,
|
|
100000000000000000000000000000000000000000000000,
|
|
100000000000000000000000000000000000000000000000,
|
|
100000000000100000000000100000000000000000000000,
|
|
500000000000000000000000000000800000000000000000,
|
|
100000000000000000000000100000000000000000000000,
|
|
100000000000100000000000200000000000000000000000,
|
|
100000000000000000000000100000000000000000000000,
|
|
100000000000100000000000100000000000000000000000,
|
|
100000000000000000000000100000000000000000000000,
|
|
200000000000000000000000000000000000000000000000,
|
|
100000000000100000000000200000000000000000000000,
|
|
500000000000000000000000000000800000000000000000,
|
|
100000000000000000000000100000000000000000000000,
|
|
100000000000100000000000200000000000000000000000,
|
|
100000000000000000000000100000000000000000000000,
|
|
100000000000100000000000100000000000000000000000,
|
|
100000000000000000000000100000000000000000000000,
|
|
200000000000000000000000200000000000000000000000,
|
|
500000000000000000000000000000000000000000800000,
|
|
000000000000000000000000000000000000000000000000,
|
|
100000000000100000100000000000000000100000000000,
|
|
000000000000000000000000000000000000000000000000,
|
|
200000000000200000200000000000000000200000000000,
|
|
000000000000000000000000000000000000000000000000,
|
|
100000000000100000100000000000000000100000000000,
|
|
000000000000000000000000000000000000000000000000,
|
|
100000000000000000000000100000000000000000000000,
|
|
200000000000200000000000200000000000000000000000,
|
|
#GOGOSTART
|
|
100000000000100000000000100000000000500000000000,
|
|
000000000000000000000000800000000000000000000000,
|
|
100000000000000000000000100000000000000000000000,
|
|
100000000000100000000000000000000000000000000000,
|
|
100000000000000000000000200000000000000000000000,
|
|
100000000000100000000000200000000000000000000000,
|
|
300000000000000000300000000000000000300000000000,
|
|
000000300000000000000000000000000000000000000000,
|
|
100000000000100000000000100000000000500000000000,
|
|
000000000000000000000000800000000000000000000000,
|
|
100000000000000000000000100000000000000000000000,
|
|
100000000000100000000000000000000000000000000000,
|
|
100000000000000000000000200000000000000000000000,
|
|
100000000000100000000000200000000000000000000000,
|
|
300000000000000000300000000000000000300000000000,
|
|
000000300000000000000000000000000000000000000000,
|
|
100000000000000000000000100000000000000000000000,
|
|
100000000000100000000000100000000000000000000000,
|
|
#GOGOEND
|
|
100000000000000000000000100000000000000000000000,
|
|
100000000000000000000000000000000000000000000000,
|
|
200000000000000000000000200000000000000000000000,
|
|
200000000000000000000000000000000000000000000000,
|
|
100000000000000000000000100000000000000000000000,
|
|
100000000000000000000000000000000000000000000000,
|
|
200000000000000000000000000000000000000000000000,
|
|
300000000000000000000000300000000000000000000000,
|
|
100000000000000000000000100000000000000000000000,
|
|
200000000000000000000000000000000000000000000000,
|
|
100000000000000000000000100000000000000000000000,
|
|
200000000000000000000000200000000000000000000000,
|
|
300000000000000000000000100000000000000000000000,
|
|
100000000000000000000000100000000000100000000000,
|
|
500000000000000000000000000000000000000000800000,
|
|
000000000000000000000000000000000000000000000000,
|
|
200000000000000000000000000000000000000000000000,
|
|
000000000000000000000000000000000000000000000000,
|
|
200000000000000000000000000000000000000000000000,
|
|
200000000000000000000000000000000000000000000000,
|
|
200000000000000000000000200000000000000000000000,
|
|
200000000000000000000000200000000000000000000000,
|
|
100000000000100000100000000000500000000000000000,
|
|
000000000000800000000000000000000000000000000000,
|
|
#GOGOSTART
|
|
100000000000100000000000100000000000500000000000,
|
|
000000000000000000000000800000000000000000000000,
|
|
100000000000100000000000100000000000000000000000,
|
|
100000000000100000000000000000000000000000000000,
|
|
100000000000100000000000200000000000000000000000,
|
|
100000000000100000000000200000000000000000000000,
|
|
300000000000000000300000000000000000300000000000,
|
|
000000300000000000000000000000000000000000000000,
|
|
100000000000100000000000100000000000500000000000,
|
|
000000000000000000000000800000000000000000000000,
|
|
100000000000100000000000100000000000000000000000,
|
|
100000000000100000000000000000000000000000000000,
|
|
100000000000100000000000200000000000000000000000,
|
|
100000000000100000000000200000000000000000000000,
|
|
300000000000000000300000000000000000300000000000,
|
|
000000300000000000000000000000000000000000000000,
|
|
100000000000000000000000100000000000100000000000,
|
|
100000000000000000000000100000000000000000000000,
|
|
500000000000000000000000000000000000000000800000,
|
|
000000000000000000000000000000000000000000000000,
|
|
300000000000000000000000100000000000100000000000,
|
|
100000000000000000000000100000000000100000000000,
|
|
500000000000000000000000000000000000000000800000,
|
|
000000000000000000000000000000000000000000000000,
|
|
700000000000000000000000000000000000000000000000,
|
|
000000000000000000800000000000000000000000000000,
|
|
600000000000000000000000000000000000000000800000,
|
|
000000000000000000000000000000000000000000000000,
|
|
700000000000000000000000000000000000000000000000,
|
|
000000000000000000800000000000000000000000000000,
|
|
#GOGOEND
|
|
100000000000000000000000100000000000000000000000,
|
|
200000000000000000000000200000000000000000000000,
|
|
100000000000100000000000100000000000000000000000,
|
|
100000000000100000000000100000000000000000000000,
|
|
100000000000000000000000100000000000000000000000,
|
|
200000000000000000000000200000000000000000000000,
|
|
100000000000100000000000100000000000000000000000,
|
|
300000000000000000000000300000000000000000000000,
|
|
|
|
|
|
#END
|
|
|
|
|
|
COURSE:Easy
|
|
LEVEL:4
|
|
BALLOON:4,4
|
|
SCOREINIT:610
|
|
SCOREDIFF:160
|
|
|
|
|
|
#START
|
|
|
|
|
|
100000000000000000000000000000000000000000000000,
|
|
200000000000000000000000000000000000000000000000,
|
|
100000000000000000000000000000000000000000000000,
|
|
200000000000000000000000000000000000000000000000,
|
|
100000000000000000000000000000000000000000000000,
|
|
200000000000000000000000000000000000000000000000,
|
|
100000000000000000000000000000000000000000000000,
|
|
300000000000000000000000000000000000000000000000,
|
|
100000000000000000000000000000000000000000000000,
|
|
200000000000000000000000000000000000000000000000,
|
|
100000000000000000000000000000000000000000000000,
|
|
200000000000000000000000000000000000000000000000,
|
|
100000000000000000000000000000000000000000000000,
|
|
200000000000000000000000000000000000000000000000,
|
|
100000000000000000000000000000000000000000000000,
|
|
500000000000000000000000800000000000000000000000,
|
|
100000000000000000000000000000000000000000000000,
|
|
100000000000000000000000000000000000000000000000,
|
|
100000000000000000000000100000000000000000000000,
|
|
100000000000000000000000000000000000000000000000,
|
|
100000000000000000000000100000000000000000000000,
|
|
200000000000000000000000000000000000000000000000,
|
|
200000000000000000000000200000000000000000000000,
|
|
200000000000000000000000000000000000000000000000,
|
|
100000000000000000000000000000000000000000000000,
|
|
100000000000000000000000000000000000000000000000,
|
|
100000000000000000000000100000000000000000000000,
|
|
100000000000000000000000000000000000000000000000,
|
|
100000000000000000000000100000000000000000000000,
|
|
100000000000000000000000100000000000000000000000,
|
|
500000000000000000000000000000000000800000000000,
|
|
000000000000000000000000000000000000000000000000,
|
|
100000000000000000000000000000000000300000000000,
|
|
000000000000000000000000000000000000000000000000,
|
|
200000000000000000000000000000000000400000000000,
|
|
000000000000000000000000000000000000000000000000,
|
|
100000000000000000000000000000000000300000000000,
|
|
000000000000000000000000000000000000000000000000,
|
|
100000000000000000000000100000000000000000000000,
|
|
100000000000000000000000100000000000000000000000,
|
|
#GOGOSTART
|
|
500000000000000000000000000000000000800000000000,
|
|
000000000000000000000000000000000000000000000000,
|
|
100000000000000000000000100000000000000000000000,
|
|
100000000000000000000000000000000000000000000000,
|
|
100000000000000000000000100000000000000000000000,
|
|
200000000000000000000000200000000000000000000000,
|
|
300000000000000000300000000000000000300000000000,
|
|
000000300000000000000000000000000000000000000000,
|
|
500000000000000000000000000000000000800000000000,
|
|
000000000000000000000000000000000000000000000000,
|
|
100000000000000000000000100000000000000000000000,
|
|
100000000000000000000000000000000000000000000000,
|
|
100000000000000000000000100000000000000000000000,
|
|
200000000000000000000000200000000000000000000000,
|
|
300000000000000000300000000000000000300000000000,
|
|
000000300000000000000000000000000000000000000000,
|
|
100000000000000000000000000000000000000000000000,
|
|
300000000000000000000000300000000000000000000000,
|
|
#GOGOEND
|
|
100000000000000000000000200000000000000000000000,
|
|
100000000000000000000000000000000000000000000000,
|
|
100000000000000000000000200000000000000000000000,
|
|
100000000000000000000000000000000000000000000000,
|
|
100000000000000000000000200000000000000000000000,
|
|
100000000000000000000000200000000000000000000000,
|
|
100000000000000000000000000000000000000000000000,
|
|
100000000000000000000000300000000000000000000000,
|
|
100000000000000000000000000000000000000000000000,
|
|
200000000000000000000000000000000000000000000000,
|
|
100000000000000000000000000000000000000000000000,
|
|
200000000000000000000000000000000000000000000000,
|
|
300000000000000000000000000000000000000000000000,
|
|
100000000000000000000000100000000000100000000000,
|
|
500000000000000000000000000000000000800000000000,
|
|
000000000000000000000000000000000000000000000000,
|
|
200000000000000000000000000000000000000000000000,
|
|
000000000000000000000000000000000000000000000000,
|
|
200000000000000000000000000000000000000000000000,
|
|
200000000000000000000000000000000000000000000000,
|
|
200000000000000000000000200000000000000000000000,
|
|
200000000000000000000000200000000000000000000000,
|
|
100000000000000000100000000000000000500000000000,
|
|
000000000000800000000000000000000000000000000000,
|
|
#GOGOSTART
|
|
500000000000000000000000000000000000800000000000,
|
|
000000000000000000000000000000000000000000000000,
|
|
100000000000000000000000200000000000000000000000,
|
|
100000000000000000000000000000000000000000000000,
|
|
100000000000000000000000100000000000000000000000,
|
|
200000000000000000000000200000000000000000000000,
|
|
300000000000000000300000000000000000300000000000,
|
|
000000300000000000000000000000000000000000000000,
|
|
500000000000000000000000000000000000800000000000,
|
|
000000000000000000000000000000000000000000000000,
|
|
100000000000000000000000200000000000000000000000,
|
|
100000000000000000000000000000000000000000000000,
|
|
100000000000000000000000100000000000000000000000,
|
|
200000000000000000000000200000000000000000000000,
|
|
300000000000000000300000000000000000300000000000,
|
|
000000300000000000000000000000000000000000000000,
|
|
100000000000000000000000100000000000000000000000,
|
|
100000000000000000000000100000000000000000000000,
|
|
500000000000000000000000000000000000000000800000,
|
|
000000000000000000000000000000000000000000000000,
|
|
300000000000000000000000000000000000000000000000,
|
|
100000000000000000000000100000000000100000000000,
|
|
500000000000000000000000000000800000000000000000,
|
|
000000000000000000000000000000000000000000000000,
|
|
7,
|
|
08,
|
|
600000000000000000000000000000800000000000000000,
|
|
000000000000000000000000000000000000000000000000,
|
|
9,
|
|
08,
|
|
#GOGOEND
|
|
100000000000000000000000000000000000000000000000,
|
|
200000000000000000000000000000000000000000000000,
|
|
100000000000000000000000100000000000000000000000,
|
|
200000000000000000000000000000000000000000000000,
|
|
100000000000000000000000000000000000000000000000,
|
|
200000000000000000000000000000000000000000000000,
|
|
100000000000000000000000100000000000000000000000,
|
|
300000000000000000000000300000000000000000000000,
|
|
|
|
|
|
#END
|
|
|