493 lines
13 KiB
Plaintext
493 lines
13 KiB
Plaintext
//TJADB Project
|
|
TITLE:Kimi ga Iru
|
|
TITLEJA:キミがいる
|
|
SUBTITLE:--Ikimono-gakari/Hotaru no Hikari 2
|
|
SUBTITLEJA:ドラマ「ホタルノヒカリ2」主題歌
|
|
BPM:208
|
|
WAVE:Kimi ga Iru.ogg
|
|
OFFSET:-1.883
|
|
DEMOSTART:77.746
|
|
|
|
COURSE:Oni
|
|
LEVEL:8
|
|
SCOREINIT:480
|
|
SCOREDIFF:110
|
|
|
|
|
|
#START
|
|
|
|
|
|
#GOGOSTART
|
|
100000000000100000000000100000000000200000001000,
|
|
000000001000200000000000100000002000200000000000,
|
|
100000000000100000000000100000000000200000001000,
|
|
000000002000200000000000100000001000100000000000,
|
|
100000000000100000000000100000000000200000001000,
|
|
000000001000200000000000100000001000200000000000,
|
|
100000000000200000000000100000002000200000000000,
|
|
100010001000200020002000100010001000200000000000,
|
|
100000000000100000000000100000000000200000001000,
|
|
000000001000200000000000100000002000200000000000,
|
|
300000000000400000000000300000000000400000000000,
|
|
300000000000400000000000300000000000400000000000,
|
|
100000000000100000000000100000000000200000001000,
|
|
000000001000200000001000100000001000200000000000,
|
|
300000000000300000000000300000002000200000003000,
|
|
|
|
#GOGOEND
|
|
000000000000000000000000000000000000000000000000,
|
|
100000002000200000000000000000002000200000000000,
|
|
100000002000200000000000000000002000200000000000,
|
|
100000002000200000000000000000002000200000000000,
|
|
100000002000200000002000200000001000200000000000,
|
|
100000002000200000000000000000002000200000000000,
|
|
100000002000200000000000000000002000200000000000,
|
|
100000002000200000000000000000002000200000000000,
|
|
100000002000200000002000100010001000200000000000,
|
|
100000000000100000000000100000000000200000001000,
|
|
000000001000200000001000100000001000200000000000,
|
|
100000000000100000000000100000000000200000001000,
|
|
000000001000200000001000100000001000200000000000,
|
|
300000000000400000000000300000000000000000000000,
|
|
300000000000400000000000300000000000300000000000,
|
|
100010001000200020002000100010001000200000001000,
|
|
000000001000200020002000100010001000200000000000,
|
|
100000002000200000000000200000002000200000000000,
|
|
100000002000200000000000200000002000200000000000,
|
|
100000002000200000000000200000002000200000000000,
|
|
100000002000200000002000200000001000200000002000,
|
|
100000002000200000000000200000002000200000000000,
|
|
100000002000200000000000200000002000200000000000,
|
|
100000002000200000000000200000002000200000000000,
|
|
100000002000200000002000100010001000200020002000,
|
|
100000000000100000000000100000000000200000001000,
|
|
000000001000200000001000100000001000200000000000,
|
|
100000000000100000000000100000000000200000001000,
|
|
000000001000200000001000100000001000200000000000,
|
|
300000000000400000000000300000000000400000000000,
|
|
300000000000400000000000300000000000400000000000,
|
|
100010001000200020002000100010001000200000001000,
|
|
000000001000200020002000200000003000000000000000,
|
|
100000000000200000001000200000000000100010001000,
|
|
100000000000200020002000200000000000100000001000,
|
|
100000000000200000001000200000000000100010001000,
|
|
100000000000200020002000100000000000100000001000,
|
|
100000000000200000001000200000000000100010001000,
|
|
100000000000100020002000200000000000100000001000,
|
|
100000000000200000001000200000000000100000000000,
|
|
100010001000200020002000100010001000200000000000,
|
|
100000000000200000001000200000000000100010001000,
|
|
100000000000200020002000200000000000100000001000,
|
|
100000000000200000001000200000000000100010001000,
|
|
100000000000200020002000100000000000100000001000,
|
|
100000000000100000000000200000000000200000000000,
|
|
300000000000300000000000400000000000400000000000,
|
|
300000000000000000300000000000000000300000000000,
|
|
000000002000200000002000200010001000200020001000,
|
|
100000000000300000000000300000000000000000003000,
|
|
000000000000000000000000000000000000000000000000,
|
|
|
|
#GOGOSTART
|
|
100000000000100000000000100000000000200000001000,
|
|
000000001000200000002000100010001000200000000000,
|
|
100000000000100000000000100000000000200000001000,
|
|
000000002000200000002000100010002000200000000000,
|
|
100000000000100000000000100000000000200000001000,
|
|
000000001000200000002000100010001000200000000000,
|
|
100000002000200000000000100000002000200000000000,
|
|
100010001000200020002000100010001000200020002000,
|
|
100000000000100000000000100000000000200000001000,
|
|
000000001000200000002000100010001000200000000000,
|
|
300000000000000000000000300000000000000000000000,
|
|
300000000000400000000000300000000000400000000000,
|
|
200000002000200000002000200020002000200000002000,
|
|
200000002000200000002000200020002000200000002000,
|
|
100000002000100000002000100010001000200000002000,
|
|
100000002000100000002000100010001000200020002000,
|
|
100000000000100000000000100000000000200000001000,
|
|
000000001000200000002000100010001000200000000000,
|
|
100000000000100000000000100000000000200000001000,
|
|
000000002000200000002000100010002000200000000000,
|
|
100000000000100000000000100000000000200000001000,
|
|
000000001000200000002000100010001000200000000000,
|
|
100000002000200000000000100000002000200000000000,
|
|
100010001000200020002000100010001000200020002000,
|
|
100000000000100000000000100000000000200000001000,
|
|
000000001000200000002000100010001000200000000000,
|
|
300000000000000000000000300000000000000000000000,
|
|
300000000000400000000000300000000000400000000000,
|
|
200000002000200000002000200020002000200000002000,
|
|
200000002000200000002000200020002000200000002000,
|
|
100000002000100000002000100010001000200020002000,
|
|
100000000000000000000000300000000000000000000000,
|
|
6,
|
|
000000000000000000000000000000000000000008000000,
|
|
|
|
#GOGOEND
|
|
|
|
|
|
#END
|
|
|
|
|
|
COURSE:Hard
|
|
LEVEL:6
|
|
SCOREINIT:600
|
|
SCOREDIFF:140
|
|
|
|
|
|
#START
|
|
|
|
|
|
#GOGOSTART
|
|
#SCROLL 0.75
|
|
100000000000100000000000100000000000200000001000,
|
|
000000001000100000000000100000000000200000000000,
|
|
100000000000100000000000100000000000200000001000,
|
|
000000001000100000000000100000000000200000000000,
|
|
100000000000100000000000100000000000200000001000,
|
|
000000001000100000000000200000000000200000000000,
|
|
500000000000000000000000000000000000800000000000,
|
|
000000000000000000000000000000000000000000000000,
|
|
100000000000100000000000100000000000200000001000,
|
|
000000001000100000000000100000000000200000000000,
|
|
300000000000400000000000300000000000400000000000,
|
|
300000000000400000000000300000000000400000000000,
|
|
100000000000100000000000100000000000200000001000,
|
|
000000001000000000001000100000000000200000000000,
|
|
300000000000300000000000300000000000000000003000,
|
|
#GOGOEND
|
|
000000000000000000000000000000000000000000000000,
|
|
100000000000200000000000000000000000200000000000,
|
|
100000000000200000000000000000000000200000000000,
|
|
100000000000200000000000000000000000200000000000,
|
|
100000000000200000000000200000002000200000000000,
|
|
100000000000200000000000000000000000200000000000,
|
|
100000000000200000000000000000000000200000000000,
|
|
100000000000200000000000000000000000200000000000,
|
|
100000000000200000000000200000002000200000000000,
|
|
100000000000100000000000100000000000000000001000,
|
|
000000001000100000000000100000000000000000000000,
|
|
100000000000100000000000100000000000000000001000,
|
|
000000001000100000000000100000000000000000000000,
|
|
300000000000400000000000300000000000000000000000,
|
|
300000000000400000000000300000000000300000000000,
|
|
000000000000000000000000000000000000000000000000,
|
|
000000000000000000000000000000000000000000000000,
|
|
100000000000200000000000000000000000200000000000,
|
|
100000000000200000000000000000000000200000000000,
|
|
100000000000200000000000000000000000200000000000,
|
|
100000000000200000000000200000001000100000000000,
|
|
100000000000200000000000000000000000200000000000,
|
|
100000000000200000000000000000000000200000000000,
|
|
100000000000200000000000000000000000200000000000,
|
|
100000000000200000000000200000001000100000000000,
|
|
100000000000100000000000100000000000000000001000,
|
|
000000001000100000000000100000000000000000000000,
|
|
100000000000100000000000100000000000000000001000,
|
|
000000001000100000000000100000000000000000000000,
|
|
300000000000400000000000300000000000400000000000,
|
|
300000000000400000000000300000000000400000000000,
|
|
600000000000000000000000000000000000800000000000,
|
|
000000000000000000000000000000000000000000000000,
|
|
100000000000000000001000100000000000100000000000,
|
|
100000000000000000002000200000000000100000000000,
|
|
100000000000000000001000100000000000100000000000,
|
|
100000000000000000002000200000000000100000000000,
|
|
100000000000000000001000100000000000100000000000,
|
|
100000000000000000002000200000000000100000000000,
|
|
100000000000000000001000100000000000100000000000,
|
|
100000000000100000000000200000000000200000000000,
|
|
100000000000000000001000100000000000100000000000,
|
|
100000000000000000002000200000000000100000000000,
|
|
100000000000000000001000100000000000100000000000,
|
|
100000000000000000002000200000000000100000000000,
|
|
100000000000100000000000200000000000200000000000,
|
|
300000000000300000000000400000000000400000000000,
|
|
600000000000000000000000000000000000000000000000,
|
|
000000000000000000000000000000008000000000000000,
|
|
300000000000300000000000300000000000000000003000,
|
|
000000000000000000000000000000000000000000000000,
|
|
#GOGOSTART
|
|
100000000000100000000000100000000000200000001000,
|
|
000000001000100000000000100000000000200000000000,
|
|
100000000000100000000000100000000000200000001000,
|
|
000000001000100000000000100000000000200000000000,
|
|
100000000000100000000000100000000000200000001000,
|
|
000000001000100000000000200000000000200000000000,
|
|
500000000000000000000000000000000000800000000000,
|
|
000000000000000000000000000000000000000000000000,
|
|
100000000000100000000000100000000000200000001000,
|
|
000000001000100000000000100000000000200000000000,
|
|
300000000000000000000000300000000000000000000000,
|
|
300000000000400000000000300000000000400000000000,
|
|
200000000000200000002000200000000000200000000000,
|
|
200000000000200000002000200000000000200000000000,
|
|
300000000000400000000000300000000000400000000000,
|
|
300000000000300000000000400000000000000000000000,
|
|
100000000000100000000000100000000000200000001000,
|
|
000000002000200000000000100000000000200000000000,
|
|
100000000000100000000000100000000000200000001000,
|
|
000000002000200000000000100000000000200000000000,
|
|
100000000000100000000000100000000000200000001000,
|
|
000000002000200000000000200000000000200000000000,
|
|
500000000000000000000000000000000000800000000000,
|
|
000000000000000000000000000000000000000000000000,
|
|
100000000000100000000000100000000000200000001000,
|
|
000000002000200000000000100000000000200000000000,
|
|
300000000000000000000000300000000000000000000000,
|
|
300000000000400000000000300000000000400000000000,
|
|
200000000000200000002000200000000000200000000000,
|
|
200000000000200000002000200000000000200000000000,
|
|
300000000000400000000000300000000000400000000000,
|
|
300000000000000000000000300000000000000000000000,
|
|
600000000000000000000000000000000000000000000000,
|
|
000000000000000000000000000000000000800000000000,
|
|
|
|
|
|
#END
|
|
|
|
|
|
COURSE:Normal
|
|
LEVEL:4
|
|
BALLOON:13
|
|
SCOREINIT:810
|
|
SCOREDIFF:210
|
|
|
|
|
|
#START
|
|
|
|
|
|
#GOGOSTART
|
|
#SCROLL 0.7
|
|
11,
|
|
1110,
|
|
11,
|
|
1110,
|
|
11,
|
|
1110,
|
|
500000000000000000000000000000000000000008000000,
|
|
,
|
|
11,
|
|
1110,
|
|
33,
|
|
33,
|
|
10101005,
|
|
000000000000000000000008000000000000000000000000,
|
|
300300300003,
|
|
|
|
#GOGOEND
|
|
,
|
|
11,
|
|
1110,
|
|
1,
|
|
,
|
|
22,
|
|
2220,
|
|
2,
|
|
,
|
|
1110,
|
|
1110,
|
|
1110,
|
|
1110,
|
|
33,
|
|
3033,
|
|
,
|
|
,
|
|
11,
|
|
1110,
|
|
1,
|
|
,
|
|
22,
|
|
2220,
|
|
2,
|
|
,
|
|
1110,
|
|
2220,
|
|
1110,
|
|
2220,
|
|
33,
|
|
3033,
|
|
600000000000000000000000000000000000000008000000,
|
|
,
|
|
12,
|
|
12,
|
|
12,
|
|
1,
|
|
12,
|
|
12,
|
|
500000000000000000000000000000000000000008000000,
|
|
,
|
|
12,
|
|
12,
|
|
12,
|
|
1,
|
|
1110,
|
|
3033,
|
|
6,
|
|
000000000000000000000000000000000008000000000000,
|
|
000000000003,
|
|
,
|
|
|
|
#GOGOSTART
|
|
11,
|
|
1110,
|
|
11,
|
|
1110,
|
|
1110,
|
|
2220,
|
|
500000000000000000000000000000000000000008000000,
|
|
,
|
|
11,
|
|
1110,
|
|
11,
|
|
22,
|
|
500000000000000000000008000000000000000000000000,
|
|
500000000000000000000008000000000000000000000000,
|
|
33,
|
|
3,
|
|
11,
|
|
1110,
|
|
11,
|
|
1110,
|
|
1110,
|
|
2220,
|
|
500000000000000000000000000000000000000008000000,
|
|
,
|
|
11,
|
|
1110,
|
|
11,
|
|
22,
|
|
222,
|
|
222,
|
|
33,
|
|
3,
|
|
9,
|
|
00000008,
|
|
|
|
#GOGOEND
|
|
|
|
|
|
#END
|
|
|
|
|
|
COURSE:Easy
|
|
LEVEL:3
|
|
BALLOON:8
|
|
SCOREINIT:730
|
|
SCOREDIFF:240
|
|
|
|
|
|
#START
|
|
|
|
|
|
#GOGOSTART
|
|
#SCROLL 0.7
|
|
1,
|
|
11,
|
|
1,
|
|
11,
|
|
1,
|
|
11,
|
|
500000000000000000000000000000000000000008000000,
|
|
,
|
|
1,
|
|
11,
|
|
33,
|
|
33,
|
|
600000000000000000000008000000000000000000000000,
|
|
600000000000000000000008000000000000000000000000,
|
|
300003000003,
|
|
|
|
#GOGOEND
|
|
,
|
|
1,
|
|
11,
|
|
1,
|
|
,
|
|
2,
|
|
22,
|
|
2,
|
|
,
|
|
11,
|
|
1,
|
|
11,
|
|
1,
|
|
11,
|
|
1033,
|
|
,
|
|
,
|
|
11,
|
|
1,
|
|
1,
|
|
,
|
|
22,
|
|
2,
|
|
2,
|
|
,
|
|
11,
|
|
1,
|
|
11,
|
|
1,
|
|
3,
|
|
33,
|
|
600000000000000000000000000000000000000008000000,
|
|
,
|
|
12,
|
|
1,
|
|
12,
|
|
1,
|
|
12,
|
|
1,
|
|
3,
|
|
,
|
|
12,
|
|
1,
|
|
12,
|
|
1,
|
|
3,
|
|
33,
|
|
6,
|
|
000000000000000000000000000000000008000000000000,
|
|
,
|
|
,
|
|
|
|
#GOGOSTART
|
|
1,
|
|
11,
|
|
1,
|
|
11,
|
|
1,
|
|
11,
|
|
500000000000000000000000000000000000000008000000,
|
|
,
|
|
1,
|
|
11,
|
|
11,
|
|
22,
|
|
500000000000000000000008000000000000000000000000,
|
|
500000000000000000000008000000000000000000000000,
|
|
33,
|
|
3,
|
|
1,
|
|
11,
|
|
1,
|
|
11,
|
|
1,
|
|
11,
|
|
500000000000000000000000000000000000000008000000,
|
|
,
|
|
1,
|
|
11,
|
|
11,
|
|
22,
|
|
500000000000000000000008000000000000000000000000,
|
|
500000000000000000000008000000000000000000000000,
|
|
33,
|
|
3,
|
|
9,
|
|
00000008,
|
|
|
|
|
|
#END
|
|
|