Files
ESE/01 Pop/Koi/Koi.tja
T
2023-06-15 19:15:39 -05:00

1044 lines
10 KiB
Plaintext

//TJADB Project
TITLE:Koi
TITLEJA:【双打】 恋
SUBTITLE:--Gen Hoshino/Nigeru wa Hajidaga Yakunitatsu
SUBTITLEJA:ドラマ「逃げるは恥だが役に立つ」より
BPM:158
WAVE:Koi.ogg
OFFSET:-6.236
DEMOSTART:48.758
COURSE:Edit
LEVEL:1
STYLE:Double
SCOREINIT:2350
SCOREDIFF:1310
#START P1
0201,
0201,
30003004,
04030000,
22,
22,
1,
,
01,
01,
1,
1,
1,
00010000,
,
,
,
1122,
2110,
,
,
,
,
,
0112,
1,
0300,
02010000,
#GOGOSTART
11111000,
0002,
,
0212,
2222,
2222,
0100,
,
,
1012,
1001,
11,
1,
00000004,
,
00000003,
00000001,
00000003,
00000001,
00000003,
0001,
#GOGOEND
1100,
1210,
01,
0100,
0200,
0210,
11,
1200,
#END
#START P2
0102,
0101,
00300004,
04030000,
,
,
1,
2110,
1,
1,
,
00000200,
,
1,
2110,
1120,
1122,
,
2100,
500000000000000000000008000000000000000000000000,
33,
33,
33,
33,
1,
0112,
30003002,
00010000,
#GOGOSTART
,
11111200,
,
2012,
2222,
20202021,
00002002,
01020000,
11,
00000200,
1001,
0101,
1,
2220,
00000003,
00000003,
01,
500000000000000000000008000000000000000000000000,
01,
500000000000000000000008000000000000000000000000,
00001001,
#GOGOEND
0200,
11,
11,
1000000100000000,
22,
2,
01,
1000000200000000,
#END
COURSE:Oni
LEVEL:6
STYLE:Double
BALLOON:9
SCOREINIT:2470
SCOREDIFF:0
#START P1
1212,
1000200010222010,
30303003,
0030003000200202,
,
10010020,
10000100,
10010000,
1,
10010020,
1212,
10000400,
10200100,
,
10200100,
1,
10000100,
10010020,
1111,
0022002000400000,
10012001,
01012000,
02222021,
02211020,
10012020,
1112,
00303047,
00000800,
#GOGOSTART
00001021,
1110200010202000,
1110000010002010,
2220001010001000,
1010010100000010,
1110000010202050,
000000000000000000000000000008000000200000300000,
0303200,
1110111010002010,
1110000010202000,
0000111010002010,
0000222000200020,
1000111010002000,
00201223,
0020001000202200,
0020001000202200,
02011022,
3002,
12211022,
30000021,
02221000,
#GOGOEND
3000222220220220,
3,
3000222210000000,
3000300300000000,
3000222200220220,
3011,
3000220011001100,
1000300300000000,
#END
#START P2
1212,
1212,
30303223,
03030222,
10000100,
10010000,
10000100,
0002,
10000100,
10010000,
1111,
10001400,
10000100,
10010020,
10000100,
10010020,
10200100,
10010000,
1212,
1100110000400000,
02222021,
02211020,
10012001,
01012020,
02222020,
1000200010001011,
10303237,
00000800,
#GOGOSTART
1110111010002000,
00011220,
0000111010002010,
0000222000200020,
0100101000202000,
00201225,
000000000000000000000000000008000000200000400000,
0040004000202222,
00001020,
0000222010202000,
1110000010002010,
2220000010001000,
1110100010002010,
1110200010202030,
00201001,
00201001,
00201022,
3000000000000011,
12211022,
30000021,
0020202000000000,
#GOGOEND
3,
3000222220220220,
3000000000220220,
3000300300000000,
3011,
3000222200220220,
3000002200110011,
0000300300000000,
#END
STYLE:Single
BALLOON:9
SCOREINIT:800
SCOREDIFF:190
#START
1212,
1000200010222010,
30303223,
0030003000202222,
10000100,
10010020,
10000100,
10010020,
10000100,
10010020,
1112,
10000400,
10200100,
10010020,
10200100,
10010020,
10200100,
10010020,
1112,
1102011000400000,
01112021,
0020201110002000,
01112021,
0020201110002000,
02221020,
1000100010002011,
10303047,
00000800,
#GOGOSTART
1110111010002010,
1110200010202000,
1110111010002010,
2220200010201020,
1110111010002010,
1110200010202050,
000000000000000000000000000008000000200000300000,
0030003000202222,
1110111010002010,
1110200010202000,
1110111010002010,
2220200010201020,
1110111010002010,
1110200010202030,
0020201010202210,
0020201010202210,
02211022,
3000000000002011,
12211022,
30000021,
0022222210000000,
#GOGOEND
3000222220220220,
3000222220220220,
3000222210220220,
3000300300000000,
3000222220220220,
3000222220220220,
3000222211111111,
1000300300000000,
#END
COURSE:Hard
LEVEL:3
STYLE:Double
BALLOON:6,6
SCOREINIT:6240
SCOREDIFF:0
#START P1
1212,
10201021,
30303004,
04040000,
1202,
1202,
1210,
1210,
1,
1,
1212,
10000400,
1202,
1202,
1210,
1210,
1,
1,
1212,
10000400,
10222000,
10012020,
10012000,
10012020,
1112,
1112,
30303047,
00000800,
#GOGOSTART
00002011,
1220,
00002011,
1212,
10102001,
00202005,
000000000000000000000008000000000000000000700000,
00000800,
11102000,
0220,
11102000,
0212,
00002011,
10202003,
02002003,
02002003,
02002020,
30000003,
02002020,
30000003,
02002000,
#GOGOEND
3202,
3,
3230,
3000300300000000,
1122,
3,
3230,
3000300300000000,
#END
#START P2
1212,
1212,
30303004,
04040220,
1,
1,
11,
1,
1202,
1202,
1212,
10001400,
1,
1,
11,
1,
1202,
1202,
1212,
10000400,
10012000,
10012020,
10222000,
10012020,
1211,
1211,
30303047,
00000800,
#GOGOSTART
11102000,
02,
11102000,
0012,
01002010,
10202005,
000000000000000000000008000000000000000000700000,
00000800,
00002011,
1220,
00002011,
1212,
11102000,
00202003,
00200203,
00200203,
0222,
30000003,
0222,
30000003,
0220,
#GOGOEND
3,
3202,
3032,
3000300300000000,
3,
1122,
3032,
3000300300000000,
#END
STYLE:Single
BALLOON:6,6
SCOREINIT:860
SCOREDIFF:240
#START
1212,
1212,
30303004,
04040000,
1202,
1202,
1210,
1210,
1202,
1202,
1112,
10000400,
1202,
1202,
1210,
1210,
1202,
1202,
1112,
10000400,
10012000,
10012020,
10012000,
10012020,
1112,
1112,
30303047,
00000800,
#GOGOSTART
11102011,
1220,
11102011,
1212,
11102011,
10202005,
000000000000000000000008000000000000000000700000,
00000800,
11102011,
1220,
11102011,
1212,
11102011,
10202003,
02202203,
02202203,
02202020,
30000003,
02202020,
30000003,
02202000,
#GOGOEND
3,
3,
33,
3000300300000000,
1122,
1122,
3230,
3000300300000000,
#END
COURSE:Normal
LEVEL:3
STYLE:Double
BALLOON:5,5
SCOREINIT:9230
SCOREDIFF:0
#START P1
11,
11,
30303004,
04040000,
1,
1,
1,
1,
1,
1,
1111,
10000400,
1,
1,
11,
1,
11,
1,
11,
10000400,
1,
12,
02,
1,
1110,
2220,
30303007,
00000800,
#GOGOSTART
1011,
2220,
1110,
2222,
1011,
20202005,
000000000000000000000008000000000000000000700000,
08,
1110,
2210,
1110,
1212,
1110,
20202003,
00200003,
00200005,
000000000000000000000008000000000000000000000000,
30000005,
000000000000000000000008000000000000000000000000,
30000005,
000000000000000000000008000000000000000000000000,
#GOGOEND
3,
3,
33,
3000300300000000,
1120,
3,
33,
3000300300000000,
#END
#START P2
0202,
0202,
30303004,
04040000,
1,
1,
11,
1,
11,
1,
11,
10000400,
1,
1,
1,
1,
1,
1,
1111,
10000400,
02,
1,
1,
12,
2220,
1110,
30303007,
08,
#GOGOSTART
1110,
2220,
1011,
2222,
1110,
20202005,
000000000000000000000008000000000000000000700000,
08,
1011,
2210,
1011,
1212,
1011,
20202003,
00002003,
00002005,
000000000000000000000008000000000000000000000000,
30000005,
000000000000000000000008000000000000000000000000,
30000005,
000000000000000000000008000000000000000000000000,
#GOGOEND
3,
3,
33,
3000300300000000,
3,
1120,
33,
3000300300000000,
#END
STYLE:Single
BALLOON:5,5
SCOREINIT:1060
SCOREDIFF:350
#START
0202,
0202,
30303003,
03030000,
1,
1,
11,
1,
11,
1,
1110,
10000400,
1,
1,
11,
1,
11,
1,
1110,
10000400,
12,
12,
12,
12,
1110,
2220,
30303007,
00000800,
#GOGOSTART
1110,
2220,
1110,
2222,
1110,
20202005,
000000000000000000000008000000000000000000700000,
00000800,
1110,
2220,
1110,
2222,
1110,
20202003,
00202003,
00202005,
000000000000000000000008000000000000000000000000,
30000005,
000000000000000000000008000000000000000000000000,
30000005,
000000000000000000000008000000000000000000000000,
#GOGOEND
3,
3,
33,
3000300300000000,
1120,
1120,
33,
3000300300000000,
#END
COURSE:Easy
LEVEL:2
STYLE:Double
BALLOON:6
SCOREINIT:14030
SCOREDIFF:0
#START P1
11,
,
30303006,
000000000000000000000008000000000000000000000000,
1,
,
,
,
1,
1,
11,
1,
1,
2,
1,
1,
1,
,
11,
1,
1,
02,
1,
02,
1,
1110,
30303006,
000000000000000000000008000000000000000000000000,
#GOGOSTART
1110,
11,
1110,
11,
1110,
10001007,
0008,
,
11,
1110,
2220,
11,
1110,
20002003,
00000003,
00000005,
000000000000000000000008000000000000000000000000,
30000005,
000000000000000000000008000000000000000000000000,
30000005,
000000000000000000000008000000000000000000000000,
#GOGOEND
3,
3,
3,
3,
1,
1,
3,
600000000000000000000008000000000000000000000000,
#END
#START P2
,
11,
30303006,
000000000000000000000008000000000000000000000000,
1,
1,
1,
1,
1,
,
11,
1,
1,
,
,
,
1,
2,
11,
1,
01,
02,
01,
02,
01,
1110,
30303006,
000000000000000000000008000000000000000000000000,
#GOGOSTART
11,
1110,
2220,
11,
11,
10101007,
0008,
,
1110,
11,
1110,
11,
11,
20202003,
00000003,
00000005,
000000000000000000000008000000000000000000000000,
30000005,
000000000000000000000008000000000000000000000000,
30000005,
000000000000000000000008000000000000000000000000,
#GOGOEND
3,
3,
03,
3,
0100,
0100,
03,
600000000000000000000008000000000000000000000000,
#END
STYLE:Single
BALLOON:6
SCOREINIT:970
SCOREDIFF:410
#START
11,
11,
30303006,
000000000000000000000008000000000000000000000000,
1,
1,
1,
1,
1,
1,
11,
1,
1,
2,
1,
1,
1,
2,
11,
1,
11,
02,
11,
02,
11,
1110,
30303006,
000000000000000000000008000000000000000000000000,
#GOGOSTART
1110,
11,
1110,
11,
1110,
10001007,
,
8,
1110,
22,
1110,
22,
1110,
20002003,
00000003,
00000005,
000000000000000000000008000000000000000000000000,
30000005,
000000000000000000000008000000000000000000000000,
30000005,
000000000000000000000008000000000000000000000000,
#GOGOEND
3,
3,
33,
3,
1100,
1100,
33,
600000000000000000000008000000000000000000000000,
#END