Files
ESE/01 Pop/Koko ni Iru yo/Koko ni Iru yo.tja
T
2023-06-15 19:15:39 -05:00

239 lines
7.5 KiB
Plaintext

//TJADB Project
TITLE:Koko ni Iru yo
TITLEJA:ここにいるよ feat.青山テルマ
SUBTITLE:--Soulja feat. Thelma Aoyama
BPM:89
WAVE:Koko ni Iru yo.ogg
OFFSET:-2.907
DEMOSTART:13.019
COURSE:Oni
LEVEL:7
SCOREINIT:850
SCOREDIFF:200
#START
1,
1,
1,
1000000000001012,
1001102112011120,
1001102210221102,
1001102112101110,
1001102210221010,
1001102112111020,
1001102210221102,
1001102112101110,
1001102210221100,
500000000000000000000000000000000000000008000000,
1001200111102000,
1001200111102000,
1001200111102030,
0120112010101120,
1110222010112020,
0120112010100020,
1110222010112020,
1020012010102000,
1110222010112020,
1010120010101200,
1110222010112020,
1020112010111120,
1020112010222210,
1020112010112220,
1020112022221110,
0020102210221011,
1020012010112020,
1020012010111020,
1020112011112020,
#GOGOSTART
1001102112011120,
1001102210221102,
1001102112101110,
1001102210221010,
1001102112111020,
1001102210221102,
1001102112101110,
1001102210221100,
500000000000000000000000000000000000000000000008,
#GOGOEND
#END
COURSE:Hard
LEVEL:4
SCOREINIT:880
SCOREDIFF:210
#START
100000000000000000000000000000000000000000000000,
100000000000000000000000000000000000000000000000,
100000000000000000000000000000000000000000000000,
100000000000000000000000000000000000100000100100,
100000000000100000000000100000000000100000100000,
100000000000100000000000100000000000100000100100,
100000000000100000000000100000000000100000100000,
100000000000100000000000100000000000100000100100,
100000000000100000200000100000000000100000100000,
100000000000100000200000100000000000100100000000,
100000000000100000200000100000000000100000100000,
100000000000100000200000100000000000100100000000,
500000000000000000000000000000000000000800000000,
100000000000200000000100100000100000200000000000,
100000000000200000000100100000100000200000000000,
100000000000200000000100100000100000200000000000,
100000200000100000200000100000100000200000000000,
100100100000200200200000100000100000200000000000,
100000200000100000200000100000100000000000000000,
100100100000200200200000100000100000200000000000,
100000200000100000200000100000100000200000000000,
100100100000200200200000100000100000200000000000,
100000100000200000000000100000100000200000000000,
100100100000200200200000100000100000200000000000,
100000200000100000200000100000100000200000000000,
100000200000100000200000100000200000200000000000,
100000200000100000200000100100100000200000000000,
100000200000100000200000200200200000100000000000,
100000200000100000000000100100100100100000000000,
100000200000100000000000200200200200200000000000,
100000200000100000000000100100100100100000000000,
100000200000100000200000100000000000100000100100,
#GOGOSTART
100000000000100000200000100000000000300000300000,
300000000000100000200000100000000000100000100100,
100000000000100000200000100000000000300000300000,
300000000000100000200000100000000000100000100100,
100000000000100000200000100000000000300000300000,
300000000000100000200000100000000000100100000000,
100000000000100000200000100000000000100000100100,
100000000000100000200000100000000000100100000000,
500000000000000000000000000000000000000000000800,
#GOGOEND
#END
COURSE:Normal
LEVEL:4
SCOREINIT:900
SCOREDIFF:250
#START
100000000000000000000000000000000000000000000000,
100000000000000000000000000000000000000000000000,
100000000000000000000000000000000000000000000000,
100000000000000000000000000000000000100000100000,
100000000000100000000000100000000000100000100000,
100000000000100000000000100000000000100000100000,
100000000000100000000000100000000000100000100000,
100000000000100000000000100000000000100000100000,
100000000000100000000000100000000000200000200000,
200000000000100000000000100000000000200000200000,
200000000000100000000000100000000000200000200000,
200000000000100000000000100000000000200000000000,
500000000000000000000000000000800000000000000000,
100000000000200000000000100000000000000000000000,
500000000000000000000000000000800000000000000000,
100000000000200000000000100000000000000000000000,
100000000000100000000000100000100000200000000000,
100000000000100000000000100000100000100000000000,
100000000000100000000000100000000000000000000000,
100000000000100000000000100000100000100000000000,
100000000000100000000000100000100000200000000000,
100000000000100000000000100000100000100000000000,
100000000000100000000000100000000000000000000000,
100000000000100000000000100000100000100000000000,
100000000000100000000000100000100000200000000000,
100000000000100000000000100000100000100000100000,
100000000000100000000000200000200000200000000000,
100000000000100000000000100000100000100000100000,
100000000000100000000000100000100000100000000000,
100000000000100000000000100000000000100000000000,
100000000000100000000000100000100000100000000000,
100000000000100000000000100000000000000000000000,
#GOGOSTART
100000000000100000000000100000000000300000300000,
300000000000100000000000100000000000300000300000,
300000000000100000000000100000000000300000300000,
300000000000100000000000100000000000100000100000,
100000000000100000000000100000000000400000400000,
400000000000100000000000100000000000400000400000,
400000000000100000000000100000000000400000400000,
400000000000100000000000100000000000200000000000,
500000000000000000000000000000000000000000800000,
#GOGOEND
#END
COURSE:Easy
LEVEL:3
SCOREINIT:960
SCOREDIFF:320
#START
100000000000000000000000000000000000000000000000,
100000000000000000000000000000000000000000000000,
100000000000000000000000000000000000000000000000,
100000000000000000000000000000000000000000000000,
100000000000000000000000100000000000100000000000,
100000000000000000000000100000000000100000000000,
100000000000000000000000100000000000100000000000,
100000000000000000000000100000000000100000000000,
100000000000000000000000100000000000100000000000,
100000000000000000000000200000000000200000000000,
200000000000000000000000200000000000200000000000,
200000000000000000000000100000000000100000000000,
500000000000000000000000000000000000000000000800,
000000000000000000000000100000000000000000000000,
500000000000000000000000000000000000000000000800,
000000000000000000000000000000000000000000000000,
100000000000000000000000100000000000100000000000,
100000000000000000000000100000000000100000000000,
100000000000000000000000100000000000100000000000,
100000000000000000000000100000000000100000000000,
100000000000000000000000100000100000100000000000,
100000000000000000000000100000100000100000000000,
100000000000000000000000100000100000100000000000,
100000000000000000000000100000100000100000000000,
100000000000100000000000100000000000000000000000,
200000000000200000000000200000000000000000000000,
100000000000100000000000100000000000100000000000,
100000000000000000000000100000000000000000000000,
200000000000200000000000200000000000200000000000,
200000000000000000000000200000000000000000000000,
100000000000100000000000100000000000000000000000,
200000000000200000000000200000000000000000000000,
#GOGOSTART
100000000000000000000000100000000000100000000000,
100000000000000000000000100000000000100000000000,
100000000000000000000000100000000000100000000000,
100000000000000000000000100000000000100000000000,
100000000000000000000000100000100000100000000000,
100000000000000000000000100000100000100000000000,
100000000000000000000000200000200000200000000000,
200000000000000000000000300000000000300000000000,
600000000000000000000000000000000000000000000008,
#GOGOEND
#END