519 lines
5.6 KiB
Plaintext
519 lines
5.6 KiB
Plaintext
//TJADB Project
|
|
TITLE:Kyary ANAN
|
|
TITLEJA:きゃりーANAN
|
|
SUBTITLE:--Kyary Pamyu Pamyu
|
|
SUBTITLEJA:きゃりーぱみゅぱみゅ
|
|
BPM:190
|
|
WAVE:Kyary ANAN.ogg
|
|
OFFSET:-5.372
|
|
DEMOSTART:86.186
|
|
|
|
COURSE:Oni
|
|
LEVEL:8
|
|
BALLOON:4,4
|
|
SCOREINIT:430
|
|
SCOREDIFF:90
|
|
|
|
|
|
#START
|
|
|
|
|
|
#GOGOSTART
|
|
10101101,
|
|
0020002210102000,
|
|
10101101,
|
|
02203030,
|
|
10101101,
|
|
0020002210102000,
|
|
10101101,
|
|
02203030,
|
|
|
|
#GOGOEND
|
|
10221101,
|
|
01122020,
|
|
10221101,
|
|
0010102020222020,
|
|
10221101,
|
|
01122020,
|
|
10221101,
|
|
2011101110102000,
|
|
10201121,
|
|
02021120,
|
|
10201102,
|
|
0010222022202220,
|
|
10201121,
|
|
02021120,
|
|
10201101,
|
|
2011101110102000,
|
|
1010201110102010,
|
|
0010202210102000,
|
|
1010201110102010,
|
|
0010222022202220,
|
|
1010201110102010,
|
|
0010202210102000,
|
|
1010201110102010,
|
|
0022202020202020,
|
|
|
|
#GOGOSTART
|
|
1010221110102211,
|
|
1010201011201120,
|
|
1010221110102270,
|
|
0000801020102011,
|
|
1010221110102211,
|
|
1010201011201120,
|
|
20202202,
|
|
02203030,
|
|
1010202111202011,
|
|
1010201011201120,
|
|
1010202111202070,
|
|
0000801020102011,
|
|
1010202111202011,
|
|
1010201011201120,
|
|
1010202111202050,
|
|
000000000000000000000000000000000000000008000000,
|
|
|
|
#GOGOEND
|
|
40202202,
|
|
02022020,
|
|
00202202,
|
|
,
|
|
00202202,
|
|
02022020,
|
|
00202202,
|
|
2211221122112000,
|
|
1010201110102010,
|
|
0010202210102000,
|
|
1010201110102010,
|
|
0010201022102000,
|
|
1010201110102010,
|
|
0010202210102000,
|
|
1010201110102010,
|
|
0022202020202020,
|
|
|
|
#GOGOSTART
|
|
1000200010112010,
|
|
0011202010102000,
|
|
1000200010122010,
|
|
0022202022102210,
|
|
1000200010112010,
|
|
0011202010102000,
|
|
1000200010122010,
|
|
0022202022102210,
|
|
1010202210112010,
|
|
0011202010102022,
|
|
1010202210122010,
|
|
0022202022102210,
|
|
1010202210112010,
|
|
0011202010102022,
|
|
1010202210122010,
|
|
2011101110102000,
|
|
20202202,
|
|
0022202020102010,
|
|
20202222,
|
|
02203030,
|
|
20202202,
|
|
0022202020102010,
|
|
20202222,
|
|
02203030,
|
|
1020221120102022,
|
|
1020201011201120,
|
|
1020221120102022,
|
|
1020201022102210,
|
|
1020221120102022,
|
|
1020201011201120,
|
|
1020221120102022,
|
|
#BPMCHANGE 192.74
|
|
500000000000000000000000000000000000000008000000,
|
|
|
|
|
|
#GOGOEND
|
|
#BPMCHANGE 190
|
|
20202202,
|
|
02203030,
|
|
|
|
|
|
#END
|
|
|
|
|
|
COURSE:Hard
|
|
LEVEL:5
|
|
BALLOON:9
|
|
SCOREINIT:460
|
|
SCOREDIFF:110
|
|
|
|
|
|
#START
|
|
|
|
|
|
|
|
#GOGOSTART
|
|
#SCROLL 0.8
|
|
10101101,
|
|
0202,
|
|
10101101,
|
|
02203030,
|
|
10101101,
|
|
0202,
|
|
10101101,
|
|
02203030,
|
|
|
|
#GOGOEND
|
|
0202,
|
|
00200022,
|
|
0202,
|
|
02202020,
|
|
0202,
|
|
00200022,
|
|
0202,
|
|
21111120,
|
|
10201101,
|
|
02021120,
|
|
10201101,
|
|
0222,
|
|
10201101,
|
|
02021120,
|
|
10201101,
|
|
,
|
|
10201101,
|
|
02021120,
|
|
10201101,
|
|
0222,
|
|
10201101,
|
|
02021120,
|
|
10201101,
|
|
,
|
|
|
|
#GOGOSTART
|
|
10110111,
|
|
01101110,
|
|
10110111,
|
|
01103030,
|
|
10110111,
|
|
01101110,
|
|
20202202,
|
|
02203030,
|
|
11210121,
|
|
01212120,
|
|
11210121,
|
|
01203030,
|
|
11210121,
|
|
01212120,
|
|
11210121,
|
|
01203030,
|
|
|
|
#GOGOEND
|
|
4,
|
|
1,
|
|
21,
|
|
2,
|
|
2,
|
|
12,
|
|
11,
|
|
4334,
|
|
10201121,
|
|
01211020,
|
|
10201121,
|
|
0202,
|
|
10201121,
|
|
01211020,
|
|
10201121,
|
|
,
|
|
|
|
#GOGOSTART
|
|
10101101,
|
|
02021120,
|
|
10101101,
|
|
01203030,
|
|
10101101,
|
|
02021120,
|
|
10101101,
|
|
01203030,
|
|
10101101,
|
|
02021120,
|
|
10101101,
|
|
01203030,
|
|
10101101,
|
|
02021120,
|
|
10101101,
|
|
01203030,
|
|
20202202,
|
|
02222020,
|
|
20202022,
|
|
02201010,
|
|
20202202,
|
|
02222020,
|
|
20202202,
|
|
02201010,
|
|
11211121,
|
|
11212010,
|
|
11211121,
|
|
11212010,
|
|
11211121,
|
|
11212010,
|
|
11211121,
|
|
#BPMCHANGE 192.74
|
|
7008,
|
|
|
|
#GOGOEND
|
|
#BPMCHANGE 190
|
|
20202202,
|
|
02203030,
|
|
|
|
|
|
#END
|
|
|
|
|
|
COURSE:Normal
|
|
LEVEL:4
|
|
BALLOON:6,6,6
|
|
SCOREINIT:720
|
|
SCOREDIFF:180
|
|
|
|
|
|
#START
|
|
|
|
|
|
#GOGOSTART
|
|
#SCROLL 0.8
|
|
10101001,
|
|
,
|
|
10101002,
|
|
,
|
|
10101001,
|
|
,
|
|
10101002,
|
|
,
|
|
|
|
#GOGOEND
|
|
0202,
|
|
0011,
|
|
0202,
|
|
0011,
|
|
0202,
|
|
0011,
|
|
0202,
|
|
500000000000000000000000000000000008000000000000,
|
|
00101001,
|
|
0011,
|
|
00202002,
|
|
,
|
|
00101001,
|
|
0011,
|
|
00202001,
|
|
,
|
|
00101001,
|
|
0011,
|
|
00202002,
|
|
,
|
|
00101001,
|
|
0011,
|
|
00202001,
|
|
,
|
|
|
|
#GOGOSTART
|
|
10101005,
|
|
000000000000000000000000000008000000000000000000,
|
|
10101007,
|
|
0008,
|
|
10101005,
|
|
000000000000000000000000000008000000000000000000,
|
|
10101001,
|
|
,
|
|
10201005,
|
|
000000000000000000000000000008000000000000000000,
|
|
20202007,
|
|
0008,
|
|
10201005,
|
|
000000000000000000000000000008000000000000000000,
|
|
20202002,
|
|
0033,
|
|
|
|
#GOGOEND
|
|
4,
|
|
1,
|
|
2,
|
|
1,
|
|
2,
|
|
12,
|
|
11,
|
|
2,
|
|
00101001,
|
|
0011,
|
|
00202002,
|
|
,
|
|
00101001,
|
|
0011,
|
|
00202001,
|
|
,
|
|
|
|
#GOGOSTART
|
|
10101005,
|
|
000000000000000000000000000008000000000000000000,
|
|
10101001,
|
|
,
|
|
10101005,
|
|
000000000000000000000000000008000000000000000000,
|
|
10101001,
|
|
,
|
|
10101001,
|
|
0202,
|
|
10101001,
|
|
,
|
|
10101001,
|
|
0202,
|
|
10101001,
|
|
,
|
|
0202,
|
|
0211,
|
|
0202,
|
|
0233,
|
|
0202,
|
|
0211,
|
|
0202,
|
|
0233,
|
|
10101110,
|
|
11101000,
|
|
10101110,
|
|
500000000000000000000000000000000008000000000000,
|
|
10101110,
|
|
11101000,
|
|
10101110,
|
|
#BPMCHANGE 192.74
|
|
7008,
|
|
|
|
#GOGOEND
|
|
#BPMCHANGE 190
|
|
20202202,
|
|
0033,
|
|
|
|
|
|
#END
|
|
|
|
|
|
COURSE:Easy
|
|
LEVEL:3
|
|
BALLOON:4,4,4
|
|
SCOREINIT:580
|
|
SCOREDIFF:130
|
|
|
|
|
|
#START
|
|
|
|
|
|
#GOGOSTART
|
|
#SCROLL 0.8
|
|
10001001,
|
|
,
|
|
10001002,
|
|
,
|
|
10001001,
|
|
,
|
|
10001002,
|
|
,
|
|
|
|
#GOGOEND
|
|
0202,
|
|
0011,
|
|
0202,
|
|
0011,
|
|
0202,
|
|
0011,
|
|
0202,
|
|
500000000000000000000000000008000000000000000000,
|
|
11,
|
|
1,
|
|
11,
|
|
2,
|
|
11,
|
|
1,
|
|
11,
|
|
2,
|
|
11,
|
|
1110,
|
|
11,
|
|
2,
|
|
11,
|
|
1110,
|
|
11,
|
|
2,
|
|
|
|
#GOGOSTART
|
|
10001005,
|
|
000000000000000000000000000008000000000000000000,
|
|
10001007,
|
|
0008,
|
|
10001005,
|
|
000000000000000000000000000008000000000000000000,
|
|
10001001,
|
|
,
|
|
10101005,
|
|
000000000000000000000000000008000000000000000000,
|
|
20202007,
|
|
0008,
|
|
10101005,
|
|
000000000000000000000000000008000000000000000000,
|
|
20202002,
|
|
,
|
|
|
|
#GOGOEND
|
|
4,
|
|
22,
|
|
2,
|
|
2,
|
|
2,
|
|
22,
|
|
2,
|
|
2,
|
|
11,
|
|
1110,
|
|
11,
|
|
2,
|
|
11,
|
|
1110,
|
|
11,
|
|
2,
|
|
|
|
#GOGOSTART
|
|
10101001,
|
|
,
|
|
10101002,
|
|
,
|
|
10101001,
|
|
,
|
|
10101002,
|
|
,
|
|
10101005,
|
|
000000000000000000000000000008000000000000000000,
|
|
10101002,
|
|
,
|
|
10101005,
|
|
000000000000000000000000000008000000000000000000,
|
|
10101002,
|
|
,
|
|
0202,
|
|
0011,
|
|
0202,
|
|
0033,
|
|
0202,
|
|
0011,
|
|
0202,
|
|
0033,
|
|
0101,
|
|
0111,
|
|
0101,
|
|
0111,
|
|
0101,
|
|
0111,
|
|
0101,
|
|
#BPMCHANGE 192.74
|
|
7008,
|
|
|
|
#GOGOEND
|
|
#BPMCHANGE 190
|
|
10101001,
|
|
0033,
|
|
|
|
|
|
#END
|
|
|