Files
ESE/01 Pop/LOVE Namida Iro/LOVE Namida Iro.tja
T
2023-06-15 19:15:39 -05:00

262 lines
10 KiB
Plaintext

//TJADB Project
TITLE:LOVE Namida Iro
TITLEJA:LOVE涙色
SUBTITLE:--Aya Matsuura/Idol o Sagase!
BPM:118
WAVE:LOVE Namida Iro.ogg
OFFSET:-2.466
DEMOSTART:81.788
COURSE:Oni
LEVEL:6
BALLOON:20
#START
100000000000000000000000000000000000000000000000,
100000000000000000000000000000000000000000000000,
100000000000000000000000000000000000000000000000,
100000100000000000100000100000000000100000000000,
300000000200000000200000000000100000100000200000,
100000000000100000000100000000000000000000000000,
100000100000100000100100000100100000100000100000,
100000000100000000100000000000100000100000000000,
300000000200000000200000000000100000100000200000,
100000000000100000000100000000200000200000000000,
100000100000100000200100000000100000100000000200,
000000200000000000000000000000000000000000000000,
100000100000100000200100000000100000100000000200,
000000200000000000000000000000000000000000000000,
200000200000000000200000000000000000000000000000,
100000000000100000100100000100100000100000000000,
100000000000100000100100000100100000100000000000,
100000000000100000100100000000200000000000200000,
000000200000000000000000000000000000000000000000,
100000000000100000100100000100100000100000000000,
100000000000100000100100000100100000100000000000,
700000000000000000000000000000000000000000000000,
000000000000000000000800000000000000000000000000,
100000100000100000100100000100100000100000200000,
100000100000100000100100000100100000100000200000,
100000100000100000100100000100100000100000200000,
000000200000000000000000000000000000000000000000,
100000100000100000100100000100100000100000200000,
100000100000100000100100000100100000100000200000,
100000100000100000100100000100100000100000200000,
100000000100000000100000000000100000100000000000,
100100000100100000100100000100100000100000000000,
100100100000100000100100000100100000100000000000,
200200000200200000200200000200200000200000000000,
100100100000100000100100000100100000100000100000,
000000100000000000100000000000000000000000000000,
000000000000000000100000100000200000100000200000,
100000000100000000100000000000000000000000000000,
000000000000000000000000000000000000000000000000,
300000000200000000200000000000100000100000200000,
100000000000100000000100000000200000200000000000,
100000100000100000100100000100100000100000100000,
100000000100000000100000000000100000100000000000,
300000000200000000200000000000100000100000200000,
100000000000100000000100000000200000200000000000,
100000100000100000200100000000100000100000000200,
000000200000000000000000000000000000000000000000,
100000100000100000200100000000100000100000000200,
000000200000000000000000000000000000000000000000,
#END
COURSE:Hard
LEVEL:3
BALLOON:20
SCOREINIT:770
SCOREDIFF:190
#START
100000000000000000000000000000000000000000000000,
100000000000000000000000000000000000000000000000,
100000000000000000000000000000000000000000000000,
100000100000000000100000100000000000100000000000,
300000000200000000200000000000100000100000200000,
100000000000100000000100000000000000000000000000,
100000100000100000100100000100100000100000100000,
100000000100000000100000000000100000100000000000,
300000000200000000200000000000100000100000200000,
100000000000100000000100000000200000200000000000,
100000100000100000200100000000100000100000000200,
000000200000000000000000000000000000000000000000,
100000100000100000200100000000100000100000000200,
000000200000000000000000000000000000000000000000,
200000200000000000200000000000000000000000000000,
100000000000100000100100000100100000100000000000,
100000000000100000100100000100100000100000000000,
100000000000100000100100000000200000000000200000,
000000200000000000000000000000000000000000000000,
100000000000100000100100000100100000100000000000,
100000000000100000100100000100100000100000000000,
700000000000000000000000000000000000000000000000,
000000000000000000000800000000000000000000000000,
100000100000100000100100000100100000100000200000,
100000100000100000100100000100100000100000200000,
100000100000100000100100000100100000100000200000,
000000200000000000000000000000000000000000000000,
100000100000100000100100000100100000100000200000,
100000100000100000100100000100100000100000200000,
100000100000100000100100000100100000100000200000,
100000000100000000100000000000100000100000000000,
100100000100100000100100000100100000100000000000,
100100100000100000100100000100100000100000000000,
200200000200200000200200000200200000200000000000,
100100100000100000100100000100100000100000100000,
000000100000000000100000000000000000000000000000,
000000000000000000100000100000200000100000200000,
100000000100000000100000000000000000000000000000,
000000000000000000000000000000000000000000000000,
300000000200000000200000000000100000100000200000,
100000000000100000000100000000200000200000000000,
100000100000100000100100000100100000100000100000,
100000000100000000100000000000100000100000000000,
300000000200000000200000000000100000100000200000,
100000000000100000000100000000200000200000000000,
100000100000100000200100000000100000100000000200,
000000200000000000000000000000000000000000000000,
100000100000100000200100000000100000100000000200,
000000200000000000000000000000000000000000000000,
#END
COURSE:Normal
LEVEL:3
BALLOON:18
SCOREINIT:970
SCOREDIFF:320
#START
100000000000000000000000000000000000000000000000,
100000000000000000000000000000000000000000000000,
100000000000000000000000000000000000000000000000,
100000100000000000100000100000000000100000000000,
300000000000000000000000000000100000100000000000,
100000000000100000000100000000000000000000000000,
100000100000100000000000100000100000100000000000,
100000000100000000100000000000100000100000000000,
300000000000000000000000000000100000100000000000,
100000000000100000000100000000000000000000000000,
100000100000100000000000100000100000100000000200,
000000200000000000000000000000000000000000000000,
100000100000100000000000100000100000100000000200,
000000200000000000000000000000000000000000000000,
200000200000000000200000000000000000000000000000,
100000000000100000100000000000100000100000000000,
100000000000100000100000000000100000000000100000,
100000000000000000000000000000200000000000200000,
000000200000000000000000000000000000000000000000,
100000000000100000100000000000100000100000000000,
100000000000100000100000000000100000000000100000,
700000000000000000000000000000000000000000000000,
000000000000000000000000000000000000000800000000,
100000000000100000100000000000100000100000000000,
100000000000100000100000000000100000000000100000,
100000000000000000000000000000200000000000200000,
000000200000000000000000000000000000000000000000,
100000000000100000100000000000100000100000000000,
100000000000100000100000000000100000000000100000,
100000000000000000000000000000100000100000100000,
100000000100000000100000000000100000100000000000,
100100000100100000100100000100100000100000000000,
100000000000100000100000000000100000000000000000,
200200000200200000200200000200200000200000000000,
100000000000100000100000000000100000000000100000,
000000100000000000100000000000000000000000000000,
000000000000000000100000100000200000100000000000,
100000000100000000100000000000000000000000000000,
000000000000000000000000000000000000000000000000,
300000000000000000000000000000100000100000000000,
100000000000100000000100000000000000000000000000,
100000100000100000000000100000100000100000000000,
100000000100000000100000000000100000100000000000,
300000000000000000000000000000100000100000000000,
100000000000100000000100000000000000000000000000,
100000100000100000000000100000100000100000000200,
000000200000000000000000000000000000000000000000,
100000100000100000000000100000100000100000000200,
000000200000000000000000000000000000000000000000,
#END
COURSE:Easy
LEVEL:3
SCOREINIT:970
SCOREDIFF:320
#START
100000000000000000000000000000000000000000000000,
100000000000000000000000000000000000000000000000,
100000000000000000000000000000000000000000000000,
100000000000000000100000100000000000000000000000,
300000000000000000000000000000100000100000000000,
100000000000100000000100000000000000000000000000,
100000000000100000000000200000000000000000000000,
100000000000000000100000000000000000100000000000,
300000000000000000000000000000100000100000000000,
100000000000100000000100000000000000000000000000,
100000000000100000000000200000000000000000000100,
000000100000000000000000000000000000000000000000,
100000000000100000000000200000000000000000000100,
000000100000000000000000000000000000000000000000,
000000000000000000000000000000000000000000000000,
100000000000100000100000000000100000100000000000,
100000000000100000100000000000100000000000000000,
100000000000000000000000000000200000000000200000,
000000200000000000000000000000000000000000000000,
100000000000100000100000000000100000100000000000,
100000000000100000100000000000100000000000000000,
500000000000000000000000000000000000000800000000,
000000000000000000000000000000000000000000000000,
100000000000100000100000000000100000100000000000,
100000000000100000100000000000100000000000000000,
100000000000000000000000000000200000000000200000,
000000200000000000000000000000000000000000000000,
100000000000100000100000000000100000100000000000,
100000000000100000100000000000100000000000000000,
100000000000000000000000000000100000100000000000,
100000000100000000100000000000100000100000000000,
100000000100000000100000000100000000100000000000,
200000000000000000100000000000100000000000000000,
100000000100000000100000000100000000100000000000,
200000000000000000100000000000100000000000100000,
000000100000000000500000000000000000000000000800,
000000000000000000100000100000000000100000000000,
100000000100000000100000000000000000000000000000,
000000000000000000000000000000000000000000000000,
300000000000000000000000000000100000100000000000,
100000000000100000000100000000000000000000000000,
100000000000100000000000100000000000000000000000,
100000000000000000100000000000000000100000000000,
300000000000000000000000000000100000100000000000,
100000000000100000000100000000000000000000000000,
100000000000100000000000200000000000000000000100,
000000100000000000000000000000000000000000000000,
100000000000100000000000200000000000000000000100,
000000100000000000000000000000000000000000000000,
#END