1050 lines
25 KiB
Plaintext
1050 lines
25 KiB
Plaintext
//TJADB Project
|
|
TITLE:Lian Ai-ING
|
|
TITLEZH:戀愛ing
|
|
SUBTITLE:--Ashin feat. Mayday
|
|
SUBTITLEZH:五月天
|
|
BPM:196.05
|
|
WAVE:Lian Ai-ING.ogg
|
|
OFFSET:-2.873
|
|
DEMOSTART:29.675
|
|
|
|
COURSE:Oni
|
|
LEVEL:9
|
|
BALLOON:28,28,28,28
|
|
SCOREINIT:500
|
|
SCOREDIFF:120
|
|
|
|
|
|
#START
|
|
|
|
|
|
10201120,
|
|
10210120,
|
|
#BPMCHANGE 200.73
|
|
10120220,
|
|
#BPMCHANGE 192.99
|
|
3,
|
|
|
|
#BPMCHANGE 197.71
|
|
#SECTION
|
|
#BRANCHSTART p,75,90
|
|
#N
|
|
10210120,
|
|
#BPMCHANGE 198.63
|
|
10210120,
|
|
#BPMCHANGE 199.79
|
|
10210120,
|
|
#BPMCHANGE 195.5
|
|
10221020,
|
|
#BPMCHANGE 197.37
|
|
10210122,
|
|
#BPMCHANGE 197
|
|
10210122,
|
|
#BPMCHANGE 199.15
|
|
10221020,
|
|
#BPMCHANGE 193.35
|
|
1,
|
|
#BPMCHANGE 196.97
|
|
10210120,
|
|
#BPMCHANGE 198.63
|
|
10210120,
|
|
#BPMCHANGE 197.91
|
|
10210120,
|
|
#BPMCHANGE 196.09
|
|
10221020,
|
|
#BPMCHANGE 197
|
|
11111100,
|
|
22222200,
|
|
#BPMCHANGE 195.59
|
|
34,
|
|
#BPMCHANGE 196.33
|
|
34,
|
|
30003304,
|
|
#BPMCHANGE 196.06
|
|
,
|
|
|
|
#E
|
|
10210122,
|
|
#BPMCHANGE 198.63
|
|
10210122,
|
|
#BPMCHANGE 199.79
|
|
10210122,
|
|
#BPMCHANGE 195.5
|
|
10221020,
|
|
#BPMCHANGE 197.37
|
|
10210122,
|
|
#BPMCHANGE 197
|
|
10210122,
|
|
#BPMCHANGE 199.15
|
|
11221200,
|
|
#BPMCHANGE 193.35
|
|
1222,
|
|
#BPMCHANGE 196.97
|
|
10210122,
|
|
#BPMCHANGE 198.63
|
|
10210122,
|
|
#BPMCHANGE 197.91
|
|
10210122,
|
|
#BPMCHANGE 196.09
|
|
10221020,
|
|
#BPMCHANGE 197
|
|
11221100,
|
|
11221200,
|
|
#BPMCHANGE 195.59
|
|
34,
|
|
#BPMCHANGE 193.33
|
|
34,
|
|
30003304,
|
|
#BPMCHANGE 196.06
|
|
,
|
|
|
|
#M
|
|
1000201011102010,
|
|
#BPMCHANGE 196.63
|
|
1000201011102010,
|
|
#BPMCHANGE 199.79
|
|
1000201011102010,
|
|
#BPMCHANGE 195.5
|
|
1000202011102020,
|
|
#BPMCHANGE 197.37
|
|
1000201011102010,
|
|
#BPMCHANGE 197
|
|
1000201011102010,
|
|
#BPMCHANGE 199.15
|
|
1110202011102000,
|
|
#BPMCHANGE 193.35
|
|
1222,
|
|
#BPMCHANGE 196.97
|
|
1000201011102010,
|
|
#BPMCHANGE 198.63
|
|
1000201011102010,
|
|
#BPMCHANGE 197.91
|
|
1000201011102010,
|
|
#BPMCHANGE 196.09
|
|
1000222011102220,
|
|
#BPMCHANGE 197
|
|
1010200011111000,
|
|
1010200022222000,
|
|
#BPMCHANGE 195.59
|
|
34,
|
|
#BPMCHANGE 196.33
|
|
34,
|
|
30003304,
|
|
#BPMCHANGE 196.06
|
|
,
|
|
|
|
#GOGOSTART
|
|
#BPMCHANGE 199.58
|
|
#SECTION
|
|
#BRANCHSTART p,75,90
|
|
#N
|
|
1000101011101000,
|
|
1000101011101000,
|
|
#BPMCHANGE 195.51
|
|
1000101011101000,
|
|
#BPMCHANGE 194.79
|
|
1110100011101000,
|
|
#BPMCHANGE 197.8
|
|
10210110,
|
|
#BPMCHANGE 197.26
|
|
10210220,
|
|
#BPMCHANGE 197.53
|
|
10210120,
|
|
1,
|
|
#BPMCHANGE 198.84
|
|
1000101011101000,
|
|
#BPMCHANGE 192.64
|
|
1000101011101000,
|
|
#BPMCHANGE 200.35
|
|
1000101011101000,
|
|
#BPMCHANGE 195.87
|
|
1110100011101000,
|
|
#BPMCHANGE 197.74
|
|
10210110,
|
|
#BPMCHANGE 194.76
|
|
10210220,
|
|
#BPMCHANGE 199.3
|
|
10210120,
|
|
#BPMCHANGE 196.89
|
|
10220220,
|
|
#BPMCHANGE 195.32
|
|
3,
|
|
#BPMCHANGE 193.52
|
|
,
|
|
#BPMCHANGE 202.67
|
|
,
|
|
#GOGOEND
|
|
#BPMCHANGE 189.51
|
|
,
|
|
|
|
#E
|
|
1000201011102010,
|
|
1000201011102010,
|
|
#BPMCHANGE 195.51
|
|
1000201011102010,
|
|
#BPMCHANGE 194.79
|
|
1110201011102010,
|
|
#BPMCHANGE 197.8
|
|
10210110,
|
|
#BPMCHANGE 197.26
|
|
10210220,
|
|
#BPMCHANGE 197.53
|
|
10211120,
|
|
1222,
|
|
#BPMCHANGE 198.84
|
|
1000201011102010,
|
|
#BPMCHANGE 192.64
|
|
1000201011102010,
|
|
#BPMCHANGE 200.35
|
|
1000201011102010,
|
|
#BPMCHANGE 195.87
|
|
1110201011102010,
|
|
#BPMCHANGE 197.74
|
|
10210110,
|
|
#BPMCHANGE 194.76
|
|
10210220,
|
|
#BPMCHANGE 199.3
|
|
10211120,
|
|
#BPMCHANGE 196.89
|
|
10220220,
|
|
#BPMCHANGE 195.32
|
|
3,
|
|
#BPMCHANGE 193.52
|
|
,
|
|
#BPMCHANGE 202.67
|
|
,
|
|
#GOGOEND
|
|
#BPMCHANGE 189.51
|
|
,
|
|
|
|
#M
|
|
1000201011102010,
|
|
1110201011102010,
|
|
#BPMCHANGE 195.51
|
|
1111202011112020,
|
|
#BPMCHANGE 194.79
|
|
1000111120201010,
|
|
#BPMCHANGE 197.8
|
|
10210110,
|
|
#BPMCHANGE 197.26
|
|
10210220,
|
|
#BPMCHANGE 197.53
|
|
10211200,
|
|
1222,
|
|
#BPMCHANGE 198.84
|
|
1000201011102010,
|
|
#BPMCHANGE 192.64
|
|
1110201011102010,
|
|
#BPMCHANGE 200.35
|
|
1111202011112020,
|
|
#BPMCHANGE 195.87
|
|
1000111120201010,
|
|
#BPMCHANGE 197.74
|
|
10210110,
|
|
#BPMCHANGE 194.76
|
|
10210220,
|
|
#BPMCHANGE 199.3
|
|
10210120,
|
|
#BPMCHANGE 196.89
|
|
10220220,
|
|
#BPMCHANGE 195.32
|
|
30070000,
|
|
#BPMCHANGE 193.52
|
|
,
|
|
#BPMCHANGE 202.67
|
|
,
|
|
#GOGOEND
|
|
#BPMCHANGE 189.51
|
|
8,
|
|
|
|
#BPMCHANGE 200.89
|
|
#SECTION
|
|
#BRANCHSTART p,75,90
|
|
#N
|
|
10210120,
|
|
10210120,
|
|
#BPMCHANGE 199.68
|
|
10210120,
|
|
#BPMCHANGE 192.63
|
|
10221020,
|
|
#BPMCHANGE 198.66
|
|
10210122,
|
|
#BPMCHANGE 195.86
|
|
10210122,
|
|
#BPMCHANGE 195.69
|
|
10221020,
|
|
#BPMCHANGE 198.46
|
|
1,
|
|
#BPMCHANGE 197.61
|
|
10210120,
|
|
10210120,
|
|
#BPMCHANGE 197.94
|
|
10210120,
|
|
#BPMCHANGE 196.07
|
|
10221020,
|
|
#BPMCHANGE 198.25
|
|
11111100,
|
|
#BPMCHANGE 197.71
|
|
22222200,
|
|
#BPMCHANGE 194.78
|
|
34,
|
|
#BPMCHANGE 197.29
|
|
34,
|
|
#BPMCHANGE 196.27
|
|
30003304,
|
|
#BPMCHANGE 196.25
|
|
,
|
|
|
|
#E
|
|
10210122,
|
|
10210122,
|
|
#BPMCHANGE 199.68
|
|
10210122,
|
|
#BPMCHANGE 192.63
|
|
10221020,
|
|
#BPMCHANGE 198.66
|
|
10210122,
|
|
#BPMCHANGE 195.86
|
|
10210122,
|
|
#BPMCHANGE 195.69
|
|
11221200,
|
|
#BPMCHANGE 198.46
|
|
1222,
|
|
#BPMCHANGE 197.61
|
|
10210122,
|
|
10210122,
|
|
#BPMCHANGE 197.94
|
|
10210122,
|
|
#BPMCHANGE 196.07
|
|
10221020,
|
|
#BPMCHANGE 198.25
|
|
11221100,
|
|
#BPMCHANGE 197.71
|
|
11221200,
|
|
#BPMCHANGE 194.78
|
|
34,
|
|
#BPMCHANGE 197.29
|
|
34,
|
|
#BPMCHANGE 196.27
|
|
30003304,
|
|
#BPMCHANGE 196.25
|
|
,
|
|
|
|
#M
|
|
1000201011102010,
|
|
1000201011102010,
|
|
#BPMCHANGE 199.68
|
|
1000201011102010,
|
|
#BPMCHANGE 192.63
|
|
1000202011102020,
|
|
#BPMCHANGE 198.66
|
|
1000201011102010,
|
|
#BPMCHANGE 195.86
|
|
1000201011102010,
|
|
#BPMCHANGE 195.69
|
|
1110202011102000,
|
|
#BPMCHANGE 198.46
|
|
1222,
|
|
#BPMCHANGE 197.61
|
|
1000201011102010,
|
|
1000201011102010,
|
|
#BPMCHANGE 197.94
|
|
1000201011102010,
|
|
#BPMCHANGE 196.07
|
|
1000222011102220,
|
|
#BPMCHANGE 198.25
|
|
1010200011111000,
|
|
#BPMCHANGE 197.71
|
|
1010200022222000,
|
|
#BPMCHANGE 194.78
|
|
34,
|
|
#BPMCHANGE 197.29
|
|
34,
|
|
#BPMCHANGE 196.27
|
|
30003304,
|
|
#BPMCHANGE 196.25
|
|
,
|
|
|
|
#GOGOSTART
|
|
#BPMCHANGE 196.22
|
|
#SECTION
|
|
#BRANCHSTART p,75,90
|
|
#N
|
|
1000101011101000,
|
|
#BPMCHANGE 199.23
|
|
1000101011101000,
|
|
#BPMCHANGE 194.24
|
|
1000101011101000,
|
|
1110100011101000,
|
|
#BPMCHANGE 199.97
|
|
10210110,
|
|
#BPMCHANGE 198.27
|
|
10210220,
|
|
10210120,
|
|
#BPMCHANGE 195.4
|
|
1,
|
|
#BPMCHANGE 194.9
|
|
1000101011101000,
|
|
#BPMCHANGE 197.71
|
|
1000101011101000,
|
|
#BPMCHANGE 196.22
|
|
1000101011101000,
|
|
#BPMCHANGE 197.18
|
|
1110100011101000,
|
|
#BPMCHANGE 197.15
|
|
10210110,
|
|
#BPMCHANGE 196.24
|
|
10210220,
|
|
#BPMCHANGE 197.9
|
|
10210120,
|
|
10220220,
|
|
#BPMCHANGE 195.51
|
|
30060000,
|
|
#BPMCHANGE 196.79
|
|
000000000000000000000008000000000000000000000000,
|
|
10210110,
|
|
#BPMCHANGE 198.46
|
|
10210220,
|
|
#BPMCHANGE 196.06
|
|
10210120,
|
|
10220220,
|
|
#BPMCHANGE 198.54
|
|
30070000,
|
|
,
|
|
#BPMCHANGE 199
|
|
000000000000000000000000000000000000000000000008,
|
|
|
|
#E
|
|
1000201011102010,
|
|
#BPMCHANGE 199.23
|
|
1000201011102010,
|
|
#BPMCHANGE 194.24
|
|
1000201011102010,
|
|
1110201011102010,
|
|
#BPMCHANGE 199.97
|
|
10210110,
|
|
#BPMCHANGE 198.27
|
|
10210220,
|
|
10211120,
|
|
#BPMCHANGE 195.4
|
|
1222,
|
|
#BPMCHANGE 194.9
|
|
1000201011102010,
|
|
#BPMCHANGE 197.71
|
|
1000201011102010,
|
|
#BPMCHANGE 196.22
|
|
1000201011102010,
|
|
#BPMCHANGE 197.18
|
|
1110201011102010,
|
|
#BPMCHANGE 197.15
|
|
10210110,
|
|
#BPMCHANGE 196.24
|
|
10210220,
|
|
#BPMCHANGE 197.9
|
|
10211120,
|
|
10220220,
|
|
#BPMCHANGE 195.51
|
|
30060000,
|
|
#BPMCHANGE 196.79
|
|
000000000000000000000008000000000000000000000000,
|
|
10210110,
|
|
#BPMCHANGE 198.46
|
|
10210220,
|
|
#BPMCHANGE 196.06
|
|
10211120,
|
|
10220220,
|
|
#BPMCHANGE 198.54
|
|
30070000,
|
|
,
|
|
#BPMCHANGE 199
|
|
000000000000000000000000000000000000000000000008,
|
|
|
|
#M
|
|
1000201022102010,
|
|
#BPMCHANGE 199.23
|
|
1110201011202010,
|
|
#BPMCHANGE 194.24
|
|
1110222011102222,
|
|
1000111120201010,
|
|
#BPMCHANGE 199.97
|
|
1110101022102010,
|
|
#BPMCHANGE 198.27
|
|
1110101022102010,
|
|
1111201011200000,
|
|
#BPMCHANGE 195.4
|
|
1222,
|
|
#BPMCHANGE 194.9
|
|
1000201022102010,
|
|
#BPMCHANGE 197.71
|
|
1110201011202010,
|
|
#BPMCHANGE 196.22
|
|
1110222011102222,
|
|
#BPMCHANGE 197.18
|
|
1000111120201010,
|
|
#BPMCHANGE 197.15
|
|
1110101022102010,
|
|
#BPMCHANGE 196.24
|
|
1110101022102010,
|
|
#BPMCHANGE 197.9
|
|
1111102011112000,
|
|
1111202011202000,
|
|
#BPMCHANGE 195.51
|
|
30060000,
|
|
#BPMCHANGE 196.79
|
|
000000000000000000000008000000000000000000000000,
|
|
2210221022122210,
|
|
#BPMCHANGE 198.46
|
|
1120112011211120,
|
|
#BPMCHANGE 196.06
|
|
2210221022122210,
|
|
1120112011211120,
|
|
#BPMCHANGE 198.54
|
|
30070000,
|
|
,
|
|
#BPMCHANGE 199
|
|
000000000000000000000000000000000000000000000008,
|
|
|
|
#BRANCHEND
|
|
#GOGOEND
|
|
|
|
|
|
#END
|
|
|
|
|
|
COURSE:Hard
|
|
LEVEL:6
|
|
BALLOON:18,18
|
|
SCOREINIT:590
|
|
SCOREDIFF:150
|
|
|
|
|
|
#START
|
|
|
|
|
|
100000000000200000000000100000100000200000000000,
|
|
100000000000200000100000000000100000200000000000,
|
|
#BPMCHANGE 200.73
|
|
100000000000100000200000000000200000200000000000,
|
|
#BPMCHANGE 192.99
|
|
300000000000000000000000000000000000000000000000,
|
|
#BPMCHANGE 197.71
|
|
100000000000200000100000000000100000200000000000,
|
|
#BPMCHANGE 198.63
|
|
100000000000200000100000000000100000200000000000,
|
|
#BPMCHANGE 199.79
|
|
100000000000200000100000000000100000200000000000,
|
|
#BPMCHANGE 195.5
|
|
100000000000200000200000100000000000200000000000,
|
|
#BPMCHANGE 197.37
|
|
100000000000200000100000000000100000200000200000,
|
|
#BPMCHANGE 197
|
|
100000000000200000100000000000100000200000200000,
|
|
#BPMCHANGE 199.15
|
|
100000000000200000200000100000100000000000000000,
|
|
#BPMCHANGE 193.35
|
|
100000000000000000000000000000000000000000000000,
|
|
#BPMCHANGE 196.97
|
|
100000000000200000100000000000100000200000000000,
|
|
#BPMCHANGE 198.63
|
|
100000000000200000100000000000100000200000000000,
|
|
#BPMCHANGE 197.91
|
|
100000000000200000100000000000100000200000000000,
|
|
#BPMCHANGE 196.09
|
|
100000000000200000200000100000000000200000000000,
|
|
#BPMCHANGE 197
|
|
100000100000200000200000100000000000200000000000,
|
|
100000100000200000200000100000000000200000000000,
|
|
#BPMCHANGE 195.59
|
|
300000000000000000000000400000000000000000000000,
|
|
#BPMCHANGE 196.33
|
|
300000000000000000000000400000000000000000000000,
|
|
300000000000000000000000300000300000000000400000,
|
|
#BPMCHANGE 196.06
|
|
000000000000000000000000000000000000000000000000,
|
|
|
|
#GOGOSTART
|
|
#BPMCHANGE 199.58
|
|
100000000000200000000000100000100000200000000000,
|
|
100000000000200000100000000000100000200000000000,
|
|
#BPMCHANGE 195.51
|
|
100000000000200000000000100000100000200000000000,
|
|
#BPMCHANGE 194.79
|
|
100000000000200000100000000000100000200000000000,
|
|
#BPMCHANGE 197.8
|
|
100000000000100000100000000000100000100000000000,
|
|
#BPMCHANGE 197.26
|
|
100000000000200000200000000000200000200000000000,
|
|
#BPMCHANGE 197.53
|
|
100000000000100000100000000000100000100000000000,
|
|
100000000000200000000000200000000000200000000000,
|
|
#BPMCHANGE 198.84
|
|
100000000000200000000000100000100000200000000000,
|
|
#BPMCHANGE 192.64
|
|
100000000000200000100000000000100000200000000000,
|
|
#BPMCHANGE 200.35
|
|
100000000000200000000000100000100000200000000000,
|
|
#BPMCHANGE 195.87
|
|
100000000000200000100000000000100000200000000000,
|
|
#BPMCHANGE 197.74
|
|
100000000000100000100000000000100000100000000000,
|
|
#BPMCHANGE 194.76
|
|
100000000000200000200000000000200000200000000000,
|
|
#BPMCHANGE 199.3
|
|
100000000000100000100000000000100000100000000000,
|
|
#BPMCHANGE 196.89
|
|
100000000000200000200000000000200000200000000000,
|
|
#BPMCHANGE 195.32
|
|
300000000000000000700000000000000000000000000000,
|
|
#BPMCHANGE 193.52
|
|
000000000000000000000000000000000000000000000000,
|
|
#BPMCHANGE 202.67
|
|
000000000000000000000000000000000000000000800000,
|
|
|
|
#GOGOEND
|
|
#BPMCHANGE 189.51
|
|
000000000000000000000000000000000000000000000000,
|
|
#BPMCHANGE 200.89
|
|
100000000000200000100000000000100000200000000000,
|
|
100000000000200000100000000000100000200000000000,
|
|
#BPMCHANGE 199.68
|
|
100000000000200000100000000000100000200000000000,
|
|
#BPMCHANGE 192.63
|
|
100000000000200000200000100000000000200000000000,
|
|
#BPMCHANGE 198.66
|
|
100000000000200000100000000000100000200000200000,
|
|
#BPMCHANGE 195.86
|
|
100000000000200000100000000000100000200000200000,
|
|
#BPMCHANGE 195.69
|
|
100000000000200000200000100000100000000000000000,
|
|
#BPMCHANGE 198.46
|
|
100000000000000000000000000000000000000000000000,
|
|
#BPMCHANGE 197.61
|
|
100000000000200000100000000000100000200000000000,
|
|
100000000000200000100000000000100000200000000000,
|
|
#BPMCHANGE 197.94
|
|
100000000000200000100000000000100000200000000000,
|
|
#BPMCHANGE 196.07
|
|
100000000000200000200000100000000000200000000000,
|
|
#BPMCHANGE 198.25
|
|
100000100000200000200000100000000000200000000000,
|
|
#BPMCHANGE 197.71
|
|
100000100000200000200000100000000000200000000000,
|
|
#BPMCHANGE 194.78
|
|
300000000000000000000000400000000000000000000000,
|
|
#BPMCHANGE 197.29
|
|
300000000000000000000000400000000000000000000000,
|
|
#BPMCHANGE 196.27
|
|
300000000000000000000000300000300000000000400000,
|
|
#BPMCHANGE 196.25
|
|
000000000000000000000000000000000000000000000000,
|
|
|
|
#GOGOSTART
|
|
#BPMCHANGE 196.22
|
|
100000000000200000000000100000100000200000000000,
|
|
#BPMCHANGE 199.23
|
|
100000000000200000100000000000100000200000000000,
|
|
#BPMCHANGE 194.24
|
|
100000000000200000000000100000100000200000000000,
|
|
100000000000200000100000000000100000200000000000,
|
|
#BPMCHANGE 199.97
|
|
100000000000100000100000000000100000100000000000,
|
|
#BPMCHANGE 198.27
|
|
100000000000200000200000000000200000200000000000,
|
|
100000000000100000100000000000100000100000000000,
|
|
#BPMCHANGE 195.4
|
|
100000000000200000000000200000000000200000000000,
|
|
#BPMCHANGE 194.9
|
|
100000000000200000000000100000100000200000000000,
|
|
#BPMCHANGE 197.71
|
|
100000000000200000100000000000100000200000000000,
|
|
#BPMCHANGE 196.22
|
|
100000000000200000000000100000100000200000000000,
|
|
#BPMCHANGE 197.18
|
|
100000000000200000100000000000100000200000000000,
|
|
#BPMCHANGE 197.15
|
|
100000000000100000100000000000100000100000000000,
|
|
#BPMCHANGE 196.24
|
|
100000000000200000200000000000200000200000000000,
|
|
#BPMCHANGE 197.9
|
|
100000000000100000100000000000100000100000000000,
|
|
100000000000200000200000000000200000200000000000,
|
|
#BPMCHANGE 195.51
|
|
300000000000000000600000000000000000000000000000,
|
|
#BPMCHANGE 196.79
|
|
000000000000000000800000000000000000000000000000,
|
|
100000000000100000100000000000100000100000000000,
|
|
#BPMCHANGE 198.46
|
|
100000000000200000200000000000200000200000000000,
|
|
#BPMCHANGE 196.06
|
|
100000000000100000100000000000100000100000000000,
|
|
100000000000200000200000000000200000200000000000,
|
|
#BPMCHANGE 198.54
|
|
300000000000000000900000000000000000000000000000,
|
|
000000000000000000000000000000000000000000000000,
|
|
#BPMCHANGE 199
|
|
000000000000000000000000000000000000000000000008,
|
|
|
|
#GOGOEND
|
|
|
|
|
|
#END
|
|
|
|
|
|
COURSE:Normal
|
|
LEVEL:5
|
|
BALLOON:12,12
|
|
SCOREINIT:780
|
|
SCOREDIFF:210
|
|
|
|
|
|
#START
|
|
|
|
|
|
100000000000000000000000000000000000100000000000,
|
|
100000000000000000000000000000000000100000000000,
|
|
#BPMCHANGE 200.73
|
|
100000000000000000000000000000000000100000000000,
|
|
#BPMCHANGE 192.99
|
|
300000000000000000000000000000000000000000000000,
|
|
#BPMCHANGE 197.71
|
|
100000000000100000000000100000000000000000000000,
|
|
#BPMCHANGE 198.63
|
|
100000000000100000000000100000000000000000000000,
|
|
#BPMCHANGE 199.79
|
|
100000000000100000000000100000000000100000000000,
|
|
#BPMCHANGE 195.5
|
|
100000000000000000000000000000000000000000000000,
|
|
#BPMCHANGE 197.37
|
|
200000000000200000000000200000000000000000000000,
|
|
#BPMCHANGE 197
|
|
200000000000200000000000200000000000000000000000,
|
|
#BPMCHANGE 199.15
|
|
200000000000200000000000200000000000200000000000,
|
|
#BPMCHANGE 193.35
|
|
200000000000000000000000000000000000000000000000,
|
|
#BPMCHANGE 196.97
|
|
100000000000100000000000100000000000000000000000,
|
|
#BPMCHANGE 198.63
|
|
100000000000100000000000100000000000000000000000,
|
|
#BPMCHANGE 197.91
|
|
100000000000100000000000100000000000100000000000,
|
|
#BPMCHANGE 196.09
|
|
100000000000000000000000200000000000000000000000,
|
|
#BPMCHANGE 197
|
|
100000000000200000000000000000000000200000000000,
|
|
100000000000200000000000000000000000200000000000,
|
|
#BPMCHANGE 195.59
|
|
300000000000000000000000300000000000000000000000,
|
|
#BPMCHANGE 196.33
|
|
300000000000000000000000300000000000000000000000,
|
|
300000000000000000000000300000000000000000400000,
|
|
#BPMCHANGE 196.06
|
|
000000000000000000000000000000000000000000000000,
|
|
|
|
#GOGOSTART
|
|
#BPMCHANGE 199.58
|
|
100000000000200000000000000000000000200000000000,
|
|
100000000000200000000000000000000000200000000000,
|
|
#BPMCHANGE 195.51
|
|
100000000000200000000000000000000000200000000000,
|
|
#BPMCHANGE 194.79
|
|
100000000000100000000000100000000000100000000000,
|
|
#BPMCHANGE 197.8
|
|
100000000000000000100000000000000000000000000000,
|
|
#BPMCHANGE 197.26
|
|
100000000000000000100000000000000000000000000000,
|
|
#BPMCHANGE 197.53
|
|
300000000000000000300000000000000000000000000000,
|
|
300000000000000000000000000000000000000000000000,
|
|
#BPMCHANGE 198.84
|
|
100000000000200000000000000000000000200000000000,
|
|
#BPMCHANGE 192.64
|
|
100000000000200000000000000000000000200000000000,
|
|
#BPMCHANGE 200.35
|
|
100000000000200000000000000000000000200000000000,
|
|
#BPMCHANGE 195.87
|
|
100000000000100000000000100000000000100000000000,
|
|
#BPMCHANGE 197.74
|
|
100000000000000000100000000000000000000000000000,
|
|
#BPMCHANGE 194.76
|
|
100000000000000000100000000000000000000000000000,
|
|
#BPMCHANGE 199.3
|
|
300000000000000000300000000000000000000000000000,
|
|
#BPMCHANGE 196.89
|
|
300000000000000000000000000000000000000000000000,
|
|
#BPMCHANGE 195.32
|
|
300000000000000000700000000000000000000000000000,
|
|
#BPMCHANGE 193.52
|
|
000000000000000000000000000000000000000000000000,
|
|
#BPMCHANGE 202.67
|
|
000000000000000000000000000000000000000000800000,
|
|
|
|
#GOGOEND
|
|
#BPMCHANGE 189.51
|
|
000000000000000000000000000000000000000000000000,
|
|
#BPMCHANGE 200.89
|
|
100000000000100000000000100000000000000000000000,
|
|
100000000000100000000000100000000000000000000000,
|
|
#BPMCHANGE 199.68
|
|
100000000000100000000000100000000000100000000000,
|
|
#BPMCHANGE 192.63
|
|
100000000000000000000000000000000000000000000000,
|
|
#BPMCHANGE 198.66
|
|
200000000000200000000000200000000000000000000000,
|
|
#BPMCHANGE 195.86
|
|
200000000000200000000000200000000000000000000000,
|
|
#BPMCHANGE 195.69
|
|
200000000000200000000000200000000000200000000000,
|
|
#BPMCHANGE 198.46
|
|
200000000000000000000000000000000000000000000000,
|
|
#BPMCHANGE 197.61
|
|
100000000000100000000000100000000000000000000000,
|
|
100000000000100000000000100000000000000000000000,
|
|
#BPMCHANGE 197.94
|
|
100000000000100000000000100000000000100000000000,
|
|
#BPMCHANGE 196.07
|
|
100000000000000000000000200000000000000000000000,
|
|
#BPMCHANGE 198.25
|
|
100000000000200000000000000000000000200000000000,
|
|
#BPMCHANGE 197.71
|
|
100000000000200000000000000000000000200000000000,
|
|
#BPMCHANGE 194.78
|
|
300000000000000000000000300000000000000000000000,
|
|
#BPMCHANGE 197.29
|
|
300000000000000000000000300000000000000000000000,
|
|
#BPMCHANGE 196.27
|
|
300000000000000000000000300000000000000000400000,
|
|
#BPMCHANGE 196.25
|
|
000000000000000000000000000000000000000000000000,
|
|
|
|
#GOGOSTART
|
|
#BPMCHANGE 196.22
|
|
100000000000200000000000000000000000200000000000,
|
|
#BPMCHANGE 199.23
|
|
100000000000200000000000000000000000200000000000,
|
|
#BPMCHANGE 194.24
|
|
100000000000200000000000000000000000200000000000,
|
|
100000000000100000000000100000000000100000000000,
|
|
#BPMCHANGE 199.97
|
|
100000000000000000100000000000000000000000000000,
|
|
#BPMCHANGE 198.27
|
|
100000000000000000100000000000000000000000000000,
|
|
300000000000000000300000000000000000000000000000,
|
|
#BPMCHANGE 195.4
|
|
300000000000000000000000000000000000000000000000,
|
|
#BPMCHANGE 194.9
|
|
100000000000200000000000000000000000200000000000,
|
|
#BPMCHANGE 197.71
|
|
100000000000200000000000000000000000200000000000,
|
|
#BPMCHANGE 196.22
|
|
100000000000200000000000000000000000200000000000,
|
|
#BPMCHANGE 197.18
|
|
100000000000100000000000100000000000100000000000,
|
|
#BPMCHANGE 197.15
|
|
100000000000000000100000000000000000000000000000,
|
|
#BPMCHANGE 196.24
|
|
100000000000000000100000000000000000000000000000,
|
|
#BPMCHANGE 197.9
|
|
300000000000000000300000000000000000000000000000,
|
|
300000000000000000000000000000000000000000000000,
|
|
#BPMCHANGE 195.51
|
|
300000000000000000600000000000000000000000000000,
|
|
#BPMCHANGE 196.79
|
|
000000000000000000800000000000000000000000000000,
|
|
100000000000000000100000000000000000000000000000,
|
|
#BPMCHANGE 198.46
|
|
100000000000000000100000000000000000000000000000,
|
|
#BPMCHANGE 196.06
|
|
100000000000000000100000000000000000000000000000,
|
|
300000000000000000300000000000000000000000000000,
|
|
#BPMCHANGE 198.54
|
|
300000000000000000900000000000000000000000000000,
|
|
000000000000000000000000000000000000000000000000,
|
|
#BPMCHANGE 199
|
|
000000000000000000000000000000000000000000000008,
|
|
|
|
#GOGOEND
|
|
|
|
|
|
#END
|
|
|
|
|
|
COURSE:Easy
|
|
LEVEL:4
|
|
BALLOON:8,8
|
|
SCOREINIT:740
|
|
SCOREDIFF:240
|
|
|
|
|
|
#START
|
|
|
|
|
|
100000000000000000000000000000000000000000000000,
|
|
100000000000000000000000000000000000000000000000,
|
|
#BPMCHANGE 200.73
|
|
100000000000000000000000100000000000000000000000,
|
|
#BPMCHANGE 192.99
|
|
300000000000000000000000000000000000000000000000,
|
|
#BPMCHANGE 197.71
|
|
100000000000000000000000000000000000000000000000,
|
|
#BPMCHANGE 198.63
|
|
100000000000000000000000000000000000000000000000,
|
|
#BPMCHANGE 199.79
|
|
100000000000000000000000100000000000000000000000,
|
|
#BPMCHANGE 195.5
|
|
100000000000000000000000000000000000000000000000,
|
|
#BPMCHANGE 197.37
|
|
200000000000000000000000000000000000000000000000,
|
|
#BPMCHANGE 197
|
|
200000000000000000000000000000000000000000000000,
|
|
#BPMCHANGE 199.15
|
|
200000000000000000000000200000000000000000000000,
|
|
#BPMCHANGE 193.35
|
|
200000000000000000000000000000000000000000000000,
|
|
#BPMCHANGE 196.97
|
|
100000000000000000000000000000000000000000000000,
|
|
#BPMCHANGE 198.63
|
|
100000000000000000000000000000000000000000000000,
|
|
#BPMCHANGE 197.91
|
|
100000000000000000000000100000000000000000000000,
|
|
#BPMCHANGE 196.09
|
|
100000000000000000000000000000000000000000000000,
|
|
#BPMCHANGE 197
|
|
100000000000000000000000100000000000000000000000,
|
|
100000000000000000000000100000000000000000000000,
|
|
#BPMCHANGE 195.59
|
|
300000000000000000000000300000000000000000000000,
|
|
#BPMCHANGE 196.33
|
|
300000000000000000000000300000000000000000000000,
|
|
300000000000000000000000000000000000000000300000,
|
|
#BPMCHANGE 196.06
|
|
000000000000000000000000000000000000000000000000,
|
|
|
|
#GOGOSTART
|
|
#BPMCHANGE 199.58
|
|
100000000000000000000000100000000000000000000000,
|
|
100000000000000000000000100000000000000000000000,
|
|
#BPMCHANGE 195.51
|
|
100000000000000000000000100000000000000000000000,
|
|
#BPMCHANGE 194.79
|
|
100000000000100000000000100000000000100000000000,
|
|
#BPMCHANGE 197.8
|
|
100000000000000000000000000000000000000000000000,
|
|
#BPMCHANGE 197.26
|
|
100000000000000000000000000000000000000000000000,
|
|
#BPMCHANGE 197.53
|
|
300000000000000000000000000000000000000000000000,
|
|
300000000000000000000000000000000000000000000000,
|
|
#BPMCHANGE 198.84
|
|
100000000000000000000000100000000000000000000000,
|
|
#BPMCHANGE 192.64
|
|
100000000000000000000000100000000000000000000000,
|
|
#BPMCHANGE 200.35
|
|
100000000000000000000000100000000000000000000000,
|
|
#BPMCHANGE 195.87
|
|
100000000000100000000000100000000000100000000000,
|
|
#BPMCHANGE 197.74
|
|
100000000000000000000000000000000000000000000000,
|
|
#BPMCHANGE 194.76
|
|
100000000000000000000000000000000000000000000000,
|
|
#BPMCHANGE 199.3
|
|
100000000000000000000000100000000000000000000000,
|
|
#BPMCHANGE 196.89
|
|
300000000000000000000000000000000000000000000000,
|
|
#BPMCHANGE 195.32
|
|
300000000000000000700000000000000000000000000000,
|
|
#BPMCHANGE 193.52
|
|
000000000000000000000000000000000000000000000000,
|
|
#BPMCHANGE 202.67
|
|
000000000000000000000000000000000000000000800000,
|
|
|
|
#GOGOEND
|
|
#BPMCHANGE 189.51
|
|
000000000000000000000000000000000000000000000000,
|
|
#BPMCHANGE 200.89
|
|
100000000000000000000000000000000000000000000000,
|
|
100000000000000000000000000000000000000000000000,
|
|
#BPMCHANGE 199.68
|
|
100000000000000000000000100000000000000000000000,
|
|
#BPMCHANGE 192.63
|
|
100000000000000000000000000000000000000000000000,
|
|
#BPMCHANGE 198.66
|
|
200000000000000000000000000000000000000000000000,
|
|
#BPMCHANGE 195.86
|
|
200000000000000000000000000000000000000000000000,
|
|
#BPMCHANGE 195.69
|
|
200000000000000000000000200000000000000000000000,
|
|
#BPMCHANGE 198.46
|
|
200000000000000000000000000000000000000000000000,
|
|
#BPMCHANGE 197.61
|
|
100000000000000000000000000000000000000000000000,
|
|
100000000000000000000000000000000000000000000000,
|
|
#BPMCHANGE 197.94
|
|
100000000000000000000000100000000000000000000000,
|
|
#BPMCHANGE 196.07
|
|
100000000000000000000000000000000000000000000000,
|
|
#BPMCHANGE 198.25
|
|
100000000000000000000000100000000000000000000000,
|
|
#BPMCHANGE 197.71
|
|
100000000000000000000000100000000000000000000000,
|
|
#BPMCHANGE 194.78
|
|
300000000000000000000000300000000000000000000000,
|
|
#BPMCHANGE 197.29
|
|
300000000000000000000000300000000000000000000000,
|
|
#BPMCHANGE 196.27
|
|
300000000000000000000000000000000000000000300000,
|
|
#BPMCHANGE 196.25
|
|
000000000000000000000000000000000000000000000000,
|
|
|
|
#GOGOSTART
|
|
#BPMCHANGE 196.22
|
|
100000000000000000000000100000000000000000000000,
|
|
#BPMCHANGE 199.23
|
|
100000000000000000000000100000000000000000000000,
|
|
#BPMCHANGE 194.24
|
|
100000000000000000000000100000000000000000000000,
|
|
100000000000100000000000100000000000100000000000,
|
|
#BPMCHANGE 199.97
|
|
100000000000000000000000000000000000000000000000,
|
|
#BPMCHANGE 198.27
|
|
100000000000000000000000000000000000000000000000,
|
|
300000000000000000000000000000000000000000000000,
|
|
#BPMCHANGE 195.4
|
|
300000000000000000000000000000000000000000000000,
|
|
#BPMCHANGE 194.9
|
|
100000000000000000000000100000000000000000000000,
|
|
#BPMCHANGE 197.71
|
|
100000000000000000000000100000000000000000000000,
|
|
#BPMCHANGE 196.22
|
|
100000000000000000000000100000000000000000000000,
|
|
#BPMCHANGE 197.18
|
|
100000000000100000000000100000000000100000000000,
|
|
#BPMCHANGE 197.15
|
|
100000000000000000000000000000000000000000000000,
|
|
#BPMCHANGE 196.24
|
|
100000000000000000000000000000000000000000000000,
|
|
#BPMCHANGE 197.9
|
|
100000000000000000000000100000000000000000000000,
|
|
300000000000000000000000000000000000000000000000,
|
|
#BPMCHANGE 195.51
|
|
300000000000000000600000000000000000000000000000,
|
|
#BPMCHANGE 196.79
|
|
000000000000000000800000000000000000000000000000,
|
|
100000000000000000000000000000000000000000000000,
|
|
#BPMCHANGE 198.46
|
|
100000000000000000000000000000000000000000000000,
|
|
#BPMCHANGE 196.06
|
|
100000000000000000000000100000000000000000000000,
|
|
300000000000000000000000000000000000000000000000,
|
|
#BPMCHANGE 198.54
|
|
300000000000000000900000000000000000000000000000,
|
|
000000000000000000000000000000000000000000000000,
|
|
#BPMCHANGE 199
|
|
000000000000000000000000000000000000000000000008,
|
|
|
|
#GOGOEND
|
|
|
|
|
|
#END
|
|
|