321 lines
6.8 KiB
Plaintext
321 lines
6.8 KiB
Plaintext
//TJADB Project
|
|
TITLE:Lifetime Respect -Onna Hen-
|
|
TITLEJA:Lifetime Respect -女編-
|
|
SUBTITLE:--RSP
|
|
BPM:85.8
|
|
WAVE:Lifetime Respect -Onna Hen-.ogg
|
|
OFFSET:-3.023
|
|
DEMOSTART:58.259
|
|
|
|
COURSE:Oni
|
|
LEVEL:7
|
|
SCOREINIT:740
|
|
SCOREDIFF:190
|
|
|
|
|
|
#START
|
|
|
|
|
|
100010100010200000000000100010100010200000000000,
|
|
100010100010200000100000100010100010200000000000,
|
|
100010100010200000000000100010100010200000000000,
|
|
100010100010200000100000300000000000000000000000,
|
|
100000100000200020200020100010100010200000200020,
|
|
100000100010200020200000100000100000000020200020,
|
|
100000100010200020200020100010100010200020200020,
|
|
100000100010200020200000100000000000000000000000,
|
|
300000400000300000400000300000300000300000000000,
|
|
100000100000200020200020100010200020100010200000,
|
|
000100000200100000200000100000100000100020200020,
|
|
100010200020100010200020100000100000200000200000,
|
|
100000200000000200000200100000100000100000000000,
|
|
100010200020100010200020100020000200100000100000,
|
|
000100000200100000200000100000100000100020200020,
|
|
100010200020100010200000100000000000000000000000,
|
|
100000202020100000100000100000200000100000101010,
|
|
100000202020100000100000100000200000000000200000,
|
|
100000202020100000100000100000200000100000101010,
|
|
100000202020100000100000200000000000200000200000,
|
|
100010100010200020200020100010100010200020200020,
|
|
100010100010200020200020100010100010200020200020,
|
|
100000101010100000101010100200000020200020200020,
|
|
100000101010100000101010100010200020200000200000,
|
|
|
|
#GOGOSTART
|
|
300000400000300000400000300000300000300000000000,
|
|
100000100000200020200020100010200020100010200000,
|
|
000100000200100000200000100000100000100020200020,
|
|
100010200020100010200020100000100000200000200000,
|
|
100000200000000200000200100000100000100000000000,
|
|
100010200020100010200020100020000200100000100000,
|
|
000100000200100000200000100000100000100020200020,
|
|
100010200020100010200000100020200020100000000000,
|
|
|
|
#GOGOEND
|
|
|
|
|
|
#END
|
|
|
|
|
|
COURSE:Hard
|
|
LEVEL:4
|
|
SCOREINIT:780
|
|
SCOREDIFF:210
|
|
|
|
|
|
#START
|
|
|
|
|
|
10201120,
|
|
10201120,
|
|
10201120,
|
|
1210,
|
|
|
|
#SECTION
|
|
#BRANCHSTART p,75,90
|
|
#N
|
|
10201110,
|
|
1210,
|
|
10201110,
|
|
1210,
|
|
|
|
#E
|
|
11201110,
|
|
11201202,
|
|
11201110,
|
|
11201000,
|
|
|
|
#M
|
|
11221112,
|
|
11221202,
|
|
11221112,
|
|
11221000,
|
|
|
|
#SECTION
|
|
#BRANCHSTART p,75,90
|
|
#N
|
|
34343330,
|
|
10201120,
|
|
10201120,
|
|
1212,
|
|
|
|
#E
|
|
34343330,
|
|
10201120,
|
|
10201120,
|
|
11201120,
|
|
|
|
#M
|
|
34343330,
|
|
10201121,
|
|
10201120,
|
|
11221122,
|
|
|
|
#SECTION
|
|
#BRANCHSTART p,75,90
|
|
#N
|
|
34343330,
|
|
10201120,
|
|
10201120,
|
|
1210,
|
|
|
|
#E
|
|
34343330,
|
|
10201120,
|
|
10201120,
|
|
11201000,
|
|
|
|
#M
|
|
34343330,
|
|
10201121,
|
|
10201120,
|
|
11221000,
|
|
|
|
#SECTION
|
|
#BRANCHSTART p,75,90
|
|
#N
|
|
12101010,
|
|
12101000,
|
|
12101010,
|
|
12102000,
|
|
|
|
#E
|
|
12101210,
|
|
12101200,
|
|
12101210,
|
|
12102000,
|
|
|
|
#M
|
|
12111211,
|
|
12111202,
|
|
12111211,
|
|
12112000,
|
|
|
|
#SECTION
|
|
#BRANCHSTART p,75,90
|
|
#N
|
|
10111020,
|
|
10222000,
|
|
10111020,
|
|
10111000,
|
|
|
|
#E
|
|
10111020,
|
|
10222020,
|
|
10111020,
|
|
10111020,
|
|
|
|
#M
|
|
100000101101100000200200,
|
|
100000202202200000200200,
|
|
100000101101100000200200,
|
|
100000101101100000200000,
|
|
|
|
#GOGOSTART
|
|
#SECTION
|
|
#BRANCHSTART p,75,90
|
|
#N
|
|
34343330,
|
|
10201120,
|
|
10201120,
|
|
1212,
|
|
|
|
#E
|
|
34343330,
|
|
10201120,
|
|
10201120,
|
|
11201120,
|
|
|
|
#M
|
|
34343330,
|
|
10201121,
|
|
10201120,
|
|
11221122,
|
|
|
|
#SECTION
|
|
#BRANCHSTART p,75,90
|
|
#N
|
|
34343330,
|
|
10201120,
|
|
10201120,
|
|
1212,
|
|
|
|
#E
|
|
34343330,
|
|
10201120,
|
|
10201120,
|
|
11201120,
|
|
|
|
#M
|
|
34343330,
|
|
10201121,
|
|
10201120,
|
|
11221120,
|
|
|
|
#BRANCHEND
|
|
#GOGOEND
|
|
|
|
|
|
#END
|
|
|
|
|
|
COURSE:Normal
|
|
LEVEL:3
|
|
BALLOON:15
|
|
SCOREINIT:780
|
|
SCOREDIFF:260
|
|
|
|
|
|
#START
|
|
|
|
|
|
000000000000200000000000000000000000200000000000,
|
|
000000000000200000000000000000000000200000000000,
|
|
000000000000200000000000000000000000200000000000,
|
|
000000000000200000000000100000000000000000000000,
|
|
100000000000100000000000100000000000000000000000,
|
|
100000000000100000000000200000000000000000000000,
|
|
100000000000100000000000100000000000000000000000,
|
|
100000000000100000000000200000000000000000000000,
|
|
300000000000300000000000300000300000300000000000,
|
|
100000000000100000000000200000000000200000000000,
|
|
300000000000300000000000300000300000300000000000,
|
|
100000000000100000000000200000000000200000000000,
|
|
300000000000300000000000300000300000300000000000,
|
|
100000000000100000000000200000000000200000000000,
|
|
300000000000300000000000300000300000300000000000,
|
|
100000000000100000000000200000000000000000000000,
|
|
100000000000100000100000100000000000100000000000,
|
|
100000000000100000100000100000000000100000000000,
|
|
100000000000100000100000100000000000200000000000,
|
|
100000000000100000100000100000000000000000000000,
|
|
100000000000100000000000200000000000200000000000,
|
|
100000000000100000000000200000000000000000000000,
|
|
100000000000100000000000200000000000200000000000,
|
|
100000000000100000000000200000000000000000000000,
|
|
#GOGOSTART
|
|
300000000000300000000000300000300000300000000000,
|
|
100000100000100000000000200000000000200000000000,
|
|
300000000000300000000000300000300000300000000000,
|
|
100000100000100000000000200000000000200000000000,
|
|
300000000000300000000000300000300000300000000000,
|
|
100000100000100000000000200000000000200000000000,
|
|
300000000000300000000000300000300000300000000000,
|
|
900000000000000000000000000000000000000000000000,
|
|
#GOGOEND
|
|
000080000000000000000000000000000000000000000000,
|
|
|
|
|
|
#END
|
|
|
|
|
|
COURSE:Easy
|
|
LEVEL:3
|
|
BALLOON:12
|
|
SCOREINIT:590
|
|
SCOREDIFF:240
|
|
|
|
|
|
#START
|
|
|
|
|
|
000000000000200000000000000000000000200000000000,
|
|
000000000000200000000000000000000000200000000000,
|
|
000000000000200000000000000000000000200000000000,
|
|
000000000000200000000000000000000000000000000000,
|
|
100000000000100000000000100000000000000000000000,
|
|
100000000000100000000000200000000000000000000000,
|
|
100000000000100000000000100000000000000000000000,
|
|
100000000000100000000000200000000000000000000000,
|
|
300000000000300000000000300000000000300000000000,
|
|
000000000000200000000000000000000000200000000000,
|
|
300000000000300000000000300000000000300000000000,
|
|
000000000000100000000000000000000000100000000000,
|
|
300000000000300000000000300000000000300000000000,
|
|
000000000000200000000000000000000000200000000000,
|
|
300000000000300000000000300000000000300000000000,
|
|
500000000000000000000000000080000000000000000000,
|
|
100000000000100000000000100000000000000000000000,
|
|
100000000000100000000000100000000000000000000000,
|
|
100000000000100000000000100000000000100000000000,
|
|
100000000000100000000000100000000000000000000000,
|
|
100000000000100000100000100000000000000000000000,
|
|
100000000000100000100000100000000000000000000000,
|
|
100000000000100000100000100000000000000000000000,
|
|
100000000000100000100000100000000000000000000000,
|
|
#GOGOSTART
|
|
300000000000300000000000300000300000300000000000,
|
|
100000000000000000000000200000000000000000000000,
|
|
300000000000300000000000300000300000300000000000,
|
|
100000000000100000000000200000000000000000000000,
|
|
300000000000300000000000300000300000300000000000,
|
|
100000000000000000000000200000000000000000000000,
|
|
300000000000300000000000300000300000300000000000,
|
|
900000000000000000000000000000000000000000000000,
|
|
#GOGOEND
|
|
000080000000000000000000000000000000000000000000,
|
|
|
|
|
|
#END
|
|
|