Files
ESE/01 Pop/Marigold/Marigold.tja
T
2023-06-15 19:05:10 -05:00

272 lines
2.7 KiB
Plaintext

//TJADB Project
TITLE:Marigold
TITLEJA:マリーゴールド
SUBTITLE:--Aimyon
BPM:106
WAVE:Marigold.ogg
OFFSET:-0.408
DEMOSTART:64.924
COURSE:Oni
LEVEL:6
BALLOON:35
SCOREINIT:820
SCOREDIFF:190
#START
00000002,
00000002,
0003,
#GOGOSTART
600000000000000000000008000000100000200000200000,
500000000000000000000008000000000000300000000000,
600000000000000000000008000000100000200000200000,
500000000008000000200000000000500000000008000000,
7,
08,
#GOGOEND
1010201100102000,
1010201102202000,
1010201100102000,
1010201102202000,
1010201100102000,
1010201102202000,
1010201100102000,
1011201120112100,
1010201100202000,
1010201102202000,
1010201100202000,
1010201102202000,
1010201100202000,
1010201102202000,
1010201100202000,
1011201120112100,
1010202010221020,
1010202010221020,
1011201020112010,
2010101020221020,
#GOGOSTART
1010201110112010,
1010202210112010,
1010201110112010,
1000202210112011,
1010202210102011,
1020202210202011,
1010202210102020,
34343040,
1010201110112010,
1010202210112010,
1010201110112010,
1000202210112011,
1010202210102011,
1020202210202011,
1010202210102020,
32211443,
3,
2,
#GOGOEND
#END
COURSE:Hard
LEVEL:4
BALLOON:25
SCOREINIT:1000
SCOREDIFF:290
#START
,
,
0003,//3
#GOGOSTART
30000111,
1003,
30000111,
10010100,
7,
08,//9
#GOGOEND
10201120,
10200120,
10201120,
10200120,
10201120,
10201220,
10201120,
1222,
10201120,
10200120,
10201120,
10200120,
10201120,
10201220,
10201120,
1222,
11221202,
11221205,
,
000000000008000000000000000000000000000000000000,//29
#GOGOSTART
10201122,
10221020,
10201122,
10221020,
11201120,
12201220,
11221020,
33333040,
10201122,
10221020,
10201122,
10221020,
11201120,
12201220,
34,
600000000000000000000000000000000000000000000008,
,
2,//47
#GOGOEND
,
,
#END
COURSE:Normal
LEVEL:1
BALLOON:18
#START
,
,
0003,//3
#GOGOSTART
3,
1003,
3,
1,
7,
08,//9
#GOGOEND
11,
1,
11,
1,
1110,
1110,
1110,
2,
12,
1,
12,
1,
1110,
1110,
1110,
2,
2200,
20200005,
,
000000000008000000000000000000000000000000000000,//29
#GOGOSTART
1011,
12,
1110,
12,
1110,
1110,
1110,
3333,
1011,
12,
1110,
12,
1110,
1110,
34,
600000000000000000000000000000000000000000000008,
,
2,//47
#GOGOEND
,
,
#END
COURSE:Easy
LEVEL:1
BALLOON:15
#START
,
,
,//3
#GOGOSTART
3,
1,
3,
1,
7,
08,//9
#GOGOEND
1,
1,
11,
1,
1,
1,
11,
1,
1,
2,
11,
1,
1,
2,
11,
1,
2,
20000005,
,
000000000008000000000000000000000000000000000000,//29
#GOGOSTART
11,
1,
11,
1,
11,
1,
1110,
3330,
11,
1,
11,
1,
11,
1,
3,
600000000000000000000000000000000000000000000008,
,
2,//47
#GOGOEND
,
,
#END