Files
ESE/01 Pop/Marionette/Marionette.tja
T
2023-06-15 19:15:39 -05:00

296 lines
12 KiB
Plaintext

//TJADB Project
TITLE:Marionette
TITLEJA:Marionette
SUBTITLE:--BOØWY
SUBTITLEJA:-マリオネット-
BPM:159.011
WAVE:Marionette.ogg
OFFSET:-6.204
DEMOSTART:66.537
COURSE:Oni
LEVEL:8
BALLOON:16,16
#START
000000000000000000000000000000000000000000000000,
000000000000000000000000000000000000000000000000,
100000000000000000100000000000000000100000100000,
100000000000000000100000000000000000100000100000,
100000000000200000100000000000000000100000100000,
100000000000200000100000000000000000100000100000,
700000000000000000000000000000000000000000000000,
000000000000800000000000100000100000100000000000,
100000100100100000000000100000200000100000000000,
100000100100100000000000100000200000100000000000,
000000100000100000200000100000100000000000100000,
000000000000000000000000000000000000000000000000,
000000000000100000000000100000000000100000000000,
100000100100100000100000100100100000100000200000,
100000100100100000100000100100100000100000200000,
100000000000100000000000100000000000000000000000,
100000100100100000100000100100100000100000000000,
100000100100100000100000100100100000100000000000,
000000000000000000000000000000000000000000000000,
000000100000100000200000100000100000000000100000,
000000000000100000000000100000000000100000000000,
100000200200100000100000200000200000100000000000,
100000100000000000100000100100100000100000200000,
100000000000100000000000100000000000000000000000,
100000000000000000100100100000200000100000100000,
100100100000100000200000100000000000100000000000,
100000000000000000100100100000200000100000100000,
100100100000100000200000100000000000100000000000,
100000000000000000100100100000200000100000100000,
100100100000100000200000100000000000100000000000,
100000100000000000000000100000100000000000300000,
000000000000000000300000000000000000000000000000,
100100100000100000200000100000000000100000000000,
100000000000000000100100100000200000100000100000,
100100100000100000200000100000000000100000000000,
100000000000000000100100100000200000100000100000,
100000000000000000100100100000200000100000100000,
100100100000100000200000100000000000100000000000,
100000100000000000000000100000100000000000000000,
100000100100100000100100100000200200200000200000,
100000200000100000100000100000200200100000200000,
100000100100100000200000000000000000000000000000,
100000200000100000100000100000200200100000200000,
100000100100100000100000000000200000000000200000,
100000200000100000100000100000200200100000200000,
100000100100100000200000000000000000000000000000,
100000200000100000100000100000200200100000200000,
100000100100100000100000000000200000000000200000,
100000100100100000100000000000100100100000200000,
100000100100100000200000000000000000000000000000,
100000100100100000100000000000100100100000200000,
100000100100100000100000000000200200200000200000,
100000100100100000100000000000100100100000200000,
100000100100100000200000000000000000000000000000,
100000100100100000100000000000100100100000200000,
100000100100100000100000000000200200200000200000,
700000000000000000000000000000000000000000000000,
000000000000000000000000000000000000000000800000,
#END
COURSE:Hard
LEVEL:5
BALLOON:16
SCOREINIT:720
SCOREDIFF:170
#START
000000000000000000000000000000000000000000000000,
000000000000000000000000000000000000000000000000,
100000000000000000100000000000000000100000100000,
100000000000000000100000000000000000100000100000,
100000000000200000100000000000000000100000100000,
100000000000000000200000100000000000100000100000,
700000000000000000000000000000000000000000000000,
000000800000000000000000100000100000100000000000,
100000100100100000000000100000200000100000000000,
100000100100100000000000100000200000100000000000,
000000100000100000200000100000100000000000100000,
000000000000000000000000000000000000000000000000,
000000000000100000000000100000000000100000000000,
100000100100100000100000200000200000100000000000,
100000100100100000100000200000200000100000200000,
100000000000100000000000100000000000000000000000,
100000100100100000000000100000200000100000000000,
100000100100100000000000100000200000100000000000,
000000000000000000000000000000000000000000000000,
000000100000100000200000100000100000000000100000,
000000000000100000000000100000000000100000000000,
100000000000100000100000000000200000100000000000,
100000100000000000100000100100100000100000200000,
100000000000100000000000100000000000000000000000,
100000000000000000100100100000200000100000100000,
100100100000100000200000100000000000100000000000,
100000000000000000100100100000200000100000100000,
100100100000100000200000100000000000100000000000,
100000000000000000100100100000200000100000100000,
100100100000100000200000100000000000100000000000,
100000100000000000000000100000100000000000300000,
000000000000000000300000000000000000000000000000,
100100100000100000200000100000000000100000000000,
100000000000000000100100100000200000100000100000,
100100100000100000200000100000000000100000000000,
100000000000000000100100100000200000100000100000,
100000000000000000100100100000200000100000100000,
100100100000100000200000100000000000100000000000,
100000100000000000000000100000100000000000000000,
100000100100100000100100100000200200200000200000,
100000000000100000100000000000100100100000200000,
100000100100100000200000000000000000000000000000,
100000000000100000100000000000100100100000200000,
100000100100100000100000000000200000000000200000,
100000000000100000100000000000100100100000200000,
100000100100100000200000000000000000000000000000,
100000000000100000100000000000100100100000200000,
100000100100100000100000000000200000000000200000,
100000100100100000100000000000100100100000200000,
100000100100100000200000000000000000000000000000,
100000100100100000100000000000100100100000200000,
100000100100100000100000000000200200200000200000,
100000100100100000100000000000100100100000200000,
100000100100100000200000000000000000000000000000,
100000100100100000100000000000100100100000200000,
100000100100100000100000000000200200200000200000,
300000000000000000000000000000000000000000000000,
#END
COURSE:Normal
LEVEL:4
BALLOON:8
SCOREINIT:830
SCOREDIFF:220
#START
000000000000000000000000000000000000000000000000,
000000000000000000000000000000000000000000000000,
100000000000000000100000000000000000100000100000,
100000000000000000100000000000000000100000100000,
100000000000200000100000000000000000100000100000,
100000000000000000200000100000000000100000100000,
700000000000000000000000000000000000000000000000,
000000800000000000000000100000100000100000000000,
000000000000100000000000000000000000100000000000,
000000000000100000000000100000100000100000000000,
000000100000100000000000100000100000000000100000,
000000000000000000000000000000000000000000000000,
000000000000100000000000100000000000100000000000,
100000000000200000100000000000200000000000000000,
100000000000200000100000000000200000000000000000,
100000000000100000000000100000000000000000000000,
000000000000100000000000000000000000100000000000,
000000000000100000000000100000100000100000000000,
000000000000000000000000000000000000000000000000,
000000100000100000000000100000100000000000100000,
000000000000100000000000100000000000100000000000,
100000000000200000100000000000200000000000000000,
100000000000200000100000000000200000000000000000,
100000000000100000000000100000000000000000000000,
100000000000100000100000000000000000200000000000,
100000000000100000100000000000000000200000000000,
100000000000100000100000000000000000200000000000,
100000000000100000100000000000000000200000000000,
100000000000100000100000000000000000200000000000,
100000000000100000100000000000000000200000000000,
100000100000000000000000100000100000000000300000,
000000000000000000300000000000000000000000000000,
100000000000100000100000000000000000200000000000,
100000000000100000100000000000000000200000000000,
100000000000100000100000000000000000200000000000,
100000000000100000100000000000000000200000000000,
100000000000100000100000000000000000200000000000,
100000000000100000100000000000000000200000000000,
100000100000000000000000100000100000000000000000,
100000000000100000000000300000000000000000000000,
100000000000100000100000000000000000100000100000,
100000000000100000100000000000000000000000000000,
100000000000100000100000000000000000100000100000,
100000000000100000100000000000200000000000200000,
100000000000100000100000000000000000100000100000,
100000000000100000100000000000000000000000000000,
100000000000100000100000000000000000100000100000,
100000000000100000100000000000200000000000200000,
100000200000100000100000000000200000100000100000,
100000200000100000100000000000200000000000200000,
100000200000100000100000000000200000100000100000,
100000200000100000100000000000200000000000200000,
100000200000100000100000000000200000100000100000,
100000200000100000100000000000200000000000200000,
100000200000100000100000000000200000100000100000,
100000200000100000100000000000200000000000200000,
300000000000000000000000000000000000000000000000,
#END
COURSE:Easy
LEVEL:3
SCOREINIT:1020
SCOREDIFF:340
#START
000000000000000000000000000000000000000000000000,
000000000000000000000000000000000000000000000000,
100000000000000000000000000000000000000000000000,
100000000000100000100000000000000000000000000000,
100000000000000000000000000000000000000000000000,
100000000000100000100000000000000000000000000000,
300000000000000000000000000000000000000000000000,
000000000000000000000000100000100000100000000000,
100000000000100000100000000000000000000000000000,
100000000000100000100000000000000000000000000000,
500000000000000000000000000000000000000080000000,
000000000000000000000000000000000000000000000000,
000000000000100000000000100000000000100000000000,
100000000000100000100000000000000000000000000000,
100000000000100000100000000000000000000000000000,
100000000000100000000000100000000000000000000000,
100000000000100000100000000000000000000000000000,
100000000000100000100000000000000000000000000000,
000000000000000000000000000000000000000000000000,
500000000000000000000000000000000000000080000000,
000000000000100000000000100000000000100000000000,
100000000000000000000000100000000000000000000000,
100000000000000000000000100000000000000000000000,
100000000000100000000000100000000000000000000000,
100000000000100000100000000000000000000000000000,
000000000000000000000000000000000000000000000000,
100000000000100000100000000000000000000000000000,
000000000000000000000000000000000000000000000000,
100000000000000000000000000000000000000000000000,
100000000000000000000000000000000000000000000000,
100000100000000000000000100000100000000000300000,
000000000000000000300000000000000000000000000000,
100000000000100000100000000000000000000000000000,
000000000000000000000000000000000000000000000000,
100000000000100000100000000000000000000000000000,
000000000000000000000000000000000000000000000000,
100000000000000000000000000000000000000000000000,
100000000000000000000000000000000000000000000000,
100000100000000000000000100000100000000000000000,
100000000000100000000000300000000000000000000000,
100000000000100000100000000000000000000000000000,
100000000000100000100000000000000000000000000000,
100000000000100000100000000000000000000000000000,
100000000000100000100000000000000000000000000000,
100000000000100000100000000000000000000000000000,
100000000000100000100000000000000000000000000000,
100000000000100000100000000000000000000000000000,
100000000000100000100000000000000000000000000000,
100000000000100000100000000000000000100000100000,
100000000000100000100000000000000000000000000000,
100000000000100000100000000000000000100000100000,
100000000000100000100000000000000000000000000000,
100000000000100000100000000000000000100000100000,
100000000000100000100000000000000000000000000000,
100000000000100000100000000000000000100000100000,
100000000000100000100000000000000000000000000000,
300000000000000000000000000000000000000000000000,
#END