342 lines
12 KiB
Plaintext
342 lines
12 KiB
Plaintext
//TJADB Project
|
|
TITLE:Marksman
|
|
TITLEJA:射手
|
|
SUBTITLE:--Magic Power
|
|
BPM:130
|
|
WAVE:Marksman.ogg
|
|
OFFSET:-7.384
|
|
DEMOSTART:75.691
|
|
|
|
COURSE:Oni
|
|
LEVEL:7
|
|
BALLOON:4,4
|
|
SCOREINIT:730
|
|
SCOREDIFF:200
|
|
|
|
|
|
#START
|
|
|
|
|
|
100000200000100000200000100000200000200000000000,
|
|
100000200000100000200000100000200000200000000000,
|
|
100000200000100000200000100000200000200000000000,
|
|
200000100000200000100000200000100000100000000000,
|
|
200000100100100000200000100000100100100000000000,
|
|
200000100100100000200000100000100100100000000000,
|
|
200000100100100000200000100000100100100000000000,
|
|
100000200200200000100000200000200200200000000000,
|
|
100000200200200000100000100000200200200000100000,
|
|
100000200200200000100000100000200200200000100000,
|
|
100000200200200000100000100000200200200000100000,
|
|
100000200200200000100000100010001000100010001000,
|
|
#GOGOSTART
|
|
100100100000100000100000100100200000200000200000,
|
|
100100200000100000200000100000200000200000000000,
|
|
100100200000200000100000100100200000200000200000,
|
|
200200100000200200100000200000100100100000000000,
|
|
100100100000100000100000100100200000200000200000,
|
|
100100200000100000200000100100200000200000000000,
|
|
100100200000200000100000100100200000200000200000,
|
|
200200100000200200100000200000100100100000000000,
|
|
#GOGOEND
|
|
000000000000100000100000200000200000200000100000,
|
|
000000000000100000100000200000000200000000100000,
|
|
000000200000100000100000200000200000200000100000,
|
|
000000100000000000100000200000000200000000100000,
|
|
000000000000100000100000200000200000200000100000,
|
|
000000000000100000100000200000000200000000100000,
|
|
000000200000100000100000200000200000200000100000,
|
|
000000500000000000000000000000000008000000000000,
|
|
100000000000100000200000100000200000100000200000,
|
|
100000000000100000200000200000000200000000100000,
|
|
100000200000100000200000100000200000100000200000,
|
|
100000200000100000200000200000000200000000100000,
|
|
100000000000100000200200100000200200100000200000,
|
|
100000000000100000200000200000000200000000100000,
|
|
100000200200100000200200100000200200100000200000,
|
|
100000100000100000100000100100100100100100100100,
|
|
000000000000000000000000000000000000000000000000,
|
|
#GOGOSTART
|
|
100000000200200000200000100000200200200000000000,
|
|
100000000200200000200000100200200000200000000000,
|
|
100000000200200000200000100000200200200000000000,
|
|
#MEASURE 2/4
|
|
100000000200200000200000,
|
|
#SCROLL 1.5
|
|
700000000800000000000000,
|
|
#MEASURE 4/4
|
|
#SCROLL 1
|
|
100000000200200000200000100000200200200000000000,
|
|
100000000200200000200000100200200000200000000000,
|
|
100000000200200000200000100000200200200000000000,
|
|
100000000200200000200000100200200000200000000000,
|
|
100000000200200000100100200000200200200000100000,
|
|
100000000200200000100100200200200000200000200000,
|
|
100000000200200000100100200000200200200000200000,
|
|
#MEASURE 2/4
|
|
300000000300000000300000,
|
|
#SCROLL 1.5
|
|
700000000800000000000000,
|
|
#SCROLL 1
|
|
#MEASURE 4/4
|
|
100000000200200000200000100000200200200000000000,
|
|
100000000200200000200000100200200000200000000000,
|
|
100000000200200000200000100000200200200000000000,
|
|
600000000000000000000000000000000008000000000000,
|
|
#SCROLL 1.5
|
|
400000000000000000000000000000000000000000000000,
|
|
#GOGOEND
|
|
|
|
|
|
#END
|
|
|
|
|
|
COURSE:Hard
|
|
LEVEL:6
|
|
BALLOON:13,3,3
|
|
SCOREINIT:790
|
|
|
|
|
|
#START
|
|
|
|
|
|
100000200000100000200000100000200000200000000000,
|
|
100000200000100000200000100000200000200000000000,
|
|
100000200000100000200000100000200000200000000000,
|
|
500000000000000000000000000000800000000000000000,
|
|
200000100000100000200000100000100000100000000000,
|
|
200000100000100000200000100000100000100000000000,
|
|
200000100000100000200000100000100000100000000000,
|
|
500000000000000000000000000000800000000000000000,
|
|
100000200000200000100000000000200000200000100000,
|
|
100000200000200000100000000000200000200000100000,
|
|
100000200000200000100000000000200000200000100000,
|
|
500000000000000000000000000000800000000000000000,
|
|
#GOGOSTART
|
|
100000000000100000100000100000200000200000200000,
|
|
100000200000100000200000100000200000200000000000,
|
|
100000200000200000100000100000200000200000200000,
|
|
200000100000200000100000200000100000100000000000,
|
|
100000000000100000100000100000200000200000200000,
|
|
100000200000100000200000100000200000200000000000,
|
|
100000200000200000100000100000200000200000200000,
|
|
100000200000100000200000100000200000200000000000,
|
|
#GOGOEND
|
|
000000000000100000100000200000200000200000100000,
|
|
000000000000100000100000200000000200000000100000,
|
|
000000200000100000100000200000200000200000100000,
|
|
000000100000000000100000200000000200000000100000,
|
|
000000000000100000100000200000200000200000100000,
|
|
000000000000100000100000200000000200000000100000,
|
|
000000200000100000100000200000200000200000100000,
|
|
000000500000000000000000000000000800000000000000,
|
|
100000000000100000200000100000200000100000000000,
|
|
100000000000100000200000100000000100000000100000,
|
|
100000200000100000200000100000200000100000000000,
|
|
100000200000100000200000100000000100000000100000,
|
|
100000000000100000200000100000200000100000000000,
|
|
100000000000100000200000100000000100000000100000,
|
|
100000200000100000200000100000200000100000000000,
|
|
900000000000000000000000000000000000000000000000,
|
|
800000000000000000000000000000000000000000000000,
|
|
#GOGOSTART
|
|
100000000200200000200000000000200200200000000000,
|
|
100000000200200000200000200200200000200000000000,
|
|
100000000200200000200000000000200200200000000000,
|
|
#MEASURE 2/4
|
|
100000000200200000200000,
|
|
#SCROLL 2
|
|
700000000800000000000000,
|
|
#MEASURE 4/4
|
|
#SCROLL 1
|
|
100000000200200000200000000000200200200000000000,
|
|
100000000200200000200000200200200000200000000000,
|
|
100000000200200000200000000000200200200000000000,
|
|
100000000200200000200000200200200000200000000000,
|
|
100000000500000800000000000000200200200000000000,
|
|
100000000500000800000000000200200000200000000000,
|
|
100000000500000800000000000000200200200000000000,
|
|
#MEASURE 2/4
|
|
300000000400000000400000,
|
|
#SCROLL 2
|
|
700000000800000000000000,
|
|
#MEASURE 4/4
|
|
#SCROLL 1
|
|
100000000200200000200000000000200200200000000000,
|
|
100000000200200000200000200200200000200000000000,
|
|
100000000200200000200000000000200200200000000000,
|
|
600000000000000000000000000000000800000000000000,
|
|
#SCROLL 2
|
|
400000000000000000000000000000000000000000000000,
|
|
#GOGOEND
|
|
|
|
|
|
#END
|
|
|
|
|
|
COURSE:Normal
|
|
LEVEL:6
|
|
BALLOON:10,3,3
|
|
SCOREINIT:860
|
|
|
|
|
|
#START
|
|
|
|
|
|
100000000000100000000000100000200000200000000000,
|
|
100000000000100000000000100000200000200000000000,
|
|
100000000000100000000000100000200000200000000000,
|
|
500000000000000000000000000000800000000000000000,
|
|
100000000000100000000000100000200000200000000000,
|
|
100000000000100000000000100000200000200000000000,
|
|
100000000000100000000000100000200000200000000000,
|
|
500000000000000000000000000000800000000000000000,
|
|
200000000000200000000000200000100000100000000000,
|
|
200000000000200000000000200000100000100000000000,
|
|
200000000000200000000000200000100000100000000000,
|
|
500000000000000000000000000000800000000000000000,
|
|
#GOGOSTART
|
|
100000000000100000000000100000200000200000000000,
|
|
200000200000200000000000100000100000100000000000,
|
|
100000000000100000000000100000200000200000000000,
|
|
200000200000200000000000100000100000100000000000,
|
|
100000000000100000000000100000200000200000000000,
|
|
100000200000200000000000200000200000100000000000,
|
|
100000000000100000000000100000200000200000000000,
|
|
100000200000200000000000200000200000100000000000,
|
|
#GOGOEND
|
|
000000000000100000000000200000000000200000000000,
|
|
000000000000100000000000400000000400000000400000,
|
|
000000000000100000000000200000000000200000000000,
|
|
000000000000100000000000400000000400000000400000,
|
|
000000000000100000000000200000000000200000000000,
|
|
000000000000100000000000400000000400000000400000,
|
|
000000000000100000000000200000000000200000000000,
|
|
000000500000000000000000000000000800000000000000,
|
|
100000000000100000000000200000000000200000000000,
|
|
100000000000100000000000400000000400000000400000,
|
|
000000000000100000000000200000000000200000000000,
|
|
100000000000100000000000400000000400000000400000,
|
|
000000000000100000000000200000000000200000000000,
|
|
100000000000100000000000400000000400000000400000,
|
|
000000000000100000000000200000000000200000000000,
|
|
900000000000000000000000000000000000000000000000,
|
|
800000000000000000000000000000000000000000000000,
|
|
#GOGOSTART
|
|
100000000000200000200000000000100000200000000000,
|
|
100000000000200000200000000000100000200000000000,
|
|
100000000000200000200000000000100000200000000000,
|
|
#MEASURE 2/4
|
|
100000000000200000200000,
|
|
#SCROLL 2
|
|
700000000800000000000000,
|
|
#MEASURE 4/4
|
|
#SCROLL 1
|
|
100000000000200000200000000000100000200000000000,
|
|
100000000000200000200000000000100000200000000000,
|
|
100000000000200000200000000000100000200000000000,
|
|
100000000000200000200000000000100000200000000000,
|
|
500000000000800000000000000000200000200000000000,
|
|
500000000000800000000000000000200000200000000000,
|
|
500000000000800000000000000000200000200000000000,
|
|
#MEASURE 2/4
|
|
400000000400000000400000,
|
|
#SCROLL 2
|
|
700000000800000000000000,
|
|
#MEASURE 4/4
|
|
#SCROLL 1
|
|
100000000000200000200000100000200000200000000000,
|
|
100000000000200000200000100000200000200000000000,
|
|
100000000000200000200000100000200000200000000000,
|
|
600000000000000000000000000000800000000000000000,
|
|
#SCROLL 2
|
|
400000000000000000000000000000000000000000000000,
|
|
#GOGOEND
|
|
|
|
|
|
#END
|
|
|
|
|
|
COURSE:Easy
|
|
LEVEL:3
|
|
BALLOON:4,4,4,4,5,2,4,4,4,2
|
|
SCOREINIT:970
|
|
|
|
|
|
#START
|
|
|
|
|
|
100000000000100000000000100000000000000000000000,
|
|
200000000000200000000000200000000000000000000000,
|
|
100000000000100000000000100000000000000000000000,
|
|
500000000000000000000000800000000000000000000000,
|
|
100000000000100000000000100000000000000000000000,
|
|
200000000000200000000000200000000000000000000000,
|
|
100000000000100000000000100000000000000000000000,
|
|
500000000000000000000000800000000000000000000000,
|
|
200000000000200000000000100000000000000000000000,
|
|
100000000000100000000000200000000000000000000000,
|
|
200000000000200000000000100000000000000000000000,
|
|
500000000000000000000000800000000000000000000000,
|
|
#GOGOSTART
|
|
100000000000000000000000100000000000000000000000,
|
|
100000000000100000000000100000000000000000000000,
|
|
100000000000000000000000100000000000000000000000,
|
|
200000000000200000000000200000000000000000000000,
|
|
100000000000000000000000100000000000000000000000,
|
|
100000000000100000000000100000000000000000000000,
|
|
100000000000000000000000100000000000000000000000,
|
|
200000000000200000000000200000000000000000000000,
|
|
#GOGOEND
|
|
000000000000700000000000000000000000800000000000,
|
|
000000000000500000000000000000000000800000000000,
|
|
000000700000000000000000000000000000800000000000,
|
|
000000500000000000000000000000000000800000000000,
|
|
000000000000700000000000000000000000800000000000,
|
|
000000000000500000000000000000000000800000000000,
|
|
000000700000000000000000000000000000800000000000,
|
|
000000500000000000000000000000000000800000000000,
|
|
000000000000100000000000100000000000100000000000,
|
|
000000000000200000000000200000000000200000000000,
|
|
000000000000100000000000100000000000100000000000,
|
|
000000000000200000000000200000000000200000000000,
|
|
000000000000100000000000100000000000200000000000,
|
|
000000000000200000000000200000000000100000000000,
|
|
000000000000100000000000100000000000200000000000,
|
|
900000000000000000000000000000000000000000000000,
|
|
800000000000000000000000000000000000000000000000,
|
|
#GOGOSTART
|
|
100000000000200000000000000000000000200000000000,
|
|
100000000000200000000000000000000000200000000000,
|
|
100000000000200000000000000000000000200000000000,
|
|
#MEASURE 2/4
|
|
100000000000200000000000,
|
|
#SCROLL 1.25
|
|
700000000800000000000000,
|
|
#MEASURE 4/4
|
|
#SCROLL 1
|
|
100000000000200000000000000000000000200000000000,
|
|
100000000000200000000000000000000000200000000000,
|
|
100000000000200000000000000000000000200000000000,
|
|
100000000000200000000000000000000000200000000000,
|
|
700000000000000000000000000000800000000000000000,
|
|
700000000000000000000000000000800000000000000000,
|
|
700000000000000000000000000000800000000000000000,
|
|
#MEASURE 2/4
|
|
500000800000000000000000,
|
|
#SCROLL 1.25
|
|
700000000800000000000000,
|
|
#MEASURE 4/4
|
|
#SCROLL 1
|
|
100000000000200000000000200000000000200000000000,
|
|
100000000000200000000000200000000000200000000000,
|
|
100000000000200000000000200000000000200000000000,
|
|
500000000000000000000000800000000000000000000000,
|
|
#SCROLL 1.25
|
|
400000000000000000000000000000000000000000000000,
|
|
#GOGOEND
|
|
|
|
|
|
#END
|
|
|