Files
ESE/01 Pop/Material Girl/Material Girl.tja
T
2023-06-15 19:15:39 -05:00

1016 lines
23 KiB
Plaintext

//TJADB Project
TITLE:Material Girl
TITLEJA:Dual Moon
SUBTITLE:--Madonna
SUBTITLEJA:タイトー「METAL BLACK」より
BPM:134.602
WAVE:Material Girl.ogg
OFFSET:-4.494
DEMOSTART:57.307
COURSE:Oni
LEVEL:7
STYLE:Double
#START P1
,
,
10201122,
10201120,
10201122,
10201210,
30210022,
11203030,
10210022,
11201202,
10210020,
11201022,
10210000,
500000000000000000000008000000000000000000000000,
10100101,
10121101,
10101012,
1,
10120101,
10101101,
02210201,
01000000,
10100101,
10121101,
10101012,
500000000000000000000008000000000000000000000000,
10120101,
10101101,
02010221,
0010000011101011,
1001201011012010,
1001201010012020,
1001101011011010,
0000201000101110,
1001201010012010,
1001201011012020,
1001101010011000,
500000000000000000000008000000000000000000000000,
00000404,
,
,
10120101,
10101201,
10101012,
500000000000000000000008000000000000000000000000,
10100101,
10121201,
02010221,
01000404,
10120101,
10101101,
10101012,
1404,
10100101,
10121101,
02210201,
1110101011101000,
1001201010012010,
1001201011012020,
1001101010011010,
00210010,
3001201011012010,
1001201010012020,
1001101011011000,
500000000000000000000008000000000000000000000000,
00000404,
10210022,
11203030,
10210022,
11201022,
10210022,
04,
#END
#START P2
,
,
10201120,
10201122,
10201120,
12101010,
30210020,
11201022,
10210020,
11201022,
10210022,
11203030,
100000000000500000000000000000000008000000000000,
,
10120101,
10101101,
10101012,
500000000000000000000008000000000000000000000000,
10100101,
10121101,
02010221,
01000000,
10120101,
10101101,
10101012,
1404,
10100101,
10121101,
02210201,
0010000011101011,
1001201010012010,
1001201011012020,
1001101010011010,
00210010,
3001201011012010,
1001201010012020,
1001101011011000,
500000000000000000000008000000000000000000000000,
,
,
00000404,
10100101,
10121201,
10101012,
1,
10120101,
10101201,
02210201,
01000000,
10100101,
10121101,
10101012,
500000000000000000000008000000000000000000000000,
10120101,
10101101,
02010221,
1110101011101000,
1001201011012010,
1001201010012020,
1001101011011010,
0000201000101110,
1001201010012010,
1001201011012020,
1001101010011000,
500000000000000000000008000000000000000000000000,
11201022,
10210020,
11201022,
10210022,
11200404,
10210022,
3,
#END
STYLE:Single
#START
000000000000000000000000000000000000000000000000,
000000000000000000000000000000000000000000000000,
100000000000200000000000100000100000200000000000,
100000000000200000000000100000100000200000200000,
100000000000200000000000100000100000200000000000,
100000200000100000000000100000200000200000000000,
300000000000200000100000000000000000200000200000,
100000100000200000000000100000000000400000000000,
100000000000200000100000000000000000200000200000,
100000100000200000000000100000200000000000200000,
100000000000200000100000000000000000200000200000,
100000100000200000000000300000000000300000000000,
100000000000200000100000000000000000200000200000,
500000000000000000000008000000000000000000000000,
100000000000100000200000000000100000000000100000,
100000000000100000200000100000100000000000100000,
100000000000100000000000100000000000100000200000,
100000000000000000000000000000000000000000000000,
100000000000100000200000000000100000000000100000,
100000000000100000200000100000100000000000100000,
000000200000200000100000000000200000200000100000,
000000100000000000000000000000000000000000000000,
100000000000100000200000000000100000000000100000,
100000000000100000200000100000100000000000100000,
100000000000100000000000100000000000100000200000,
100000000000400000000000000000000000400000000000,
100000000000100000200000000000100000000000100000,
100000000000100000200000100000100000000000100000,
000000200000200000100000000000200000200000100000,
000000100000000000000000100100100000100000100100,
100000000100200000100000100000000100200000100000,
100000000100200000100000100000000100200000200000,
100000000100100000100000100000000100100000100000,
000000000000200000100000000000100000200000000000,
100000000100200000100000100000000100200000100000,
100000000100200000100000100000000100200000200000,
100000000100100000100000100000000100100000000000,
500000000000000000000008000000000000000000000000,
000000000000000000000000000000400000000000400000,
000000000000000000000000000000000000000000000000,
000000000000000000000000000000400000000000400000,
100000000000100000200000000000100000000000100000,
100000000000100000200000100000200000000000100000,
100000000000100000000000100000000000100000200000,
100000000000000000000000000000000000000000000000,
100000000000100000200000000000100000000000100000,
100000000000100000200000100000200000000000100000,
000000200000200000100000000000200000200000100000,
000000100000000000000000000000400000000000400000,
100000000000100000200000000000100000000000100000,
100000000000100000200000100000200000000000100000,
100000000000100000000000100000000000100000200000,
100000000000400000000000000000000000400000000000,
100000000000100000200000000000100000000000100000,
100000000000100000200000100000200000000000100000,
000000200000200000100000000000200000200000100000,
100100100000100000100000100100100000100000000000,
100000000100200000100000100000000100200000100000,
100000000100200000100000100000000100200000200000,
100000000100100000100000100000000100100000100000,
000000000000200000100000000000100000200000000000,
100000000100200000100000100000000100200000100000,
100000000100200000100000100000000100200000200000,
100000000100100000100000100000000100100000000000,
500000000000000000000008000000000000000000000000,
100000100000200000000000100000000000400000000000,
100000000000200000100000000000000000200000200000,
100000100000200000000000100000200000000000200000,
100000000000200000100000000000000000200000200000,
100000100000200000000000300000000000300000000000,
100000000000200000100000000000000000200000200000,
300000000000000000000000400000000000000000000000,
#END
COURSE:Hard
LEVEL:7
STYLE:Double
#START P1
,
,
10201122,
10201120,
10201122,
10201210,
30210022,
11203030,
10210022,
11201202,
10210020,
11201022,
10210000,
500000000000000000000008000000000000000000000000,
10100101,
10121101,
10101012,
1,
10120101,
10101101,
02210201,
01000000,
10100101,
10121101,
10101012,
500000000000000000000008000000000000000000000000,
10120101,
10101101,
02010221,
0010000011101011,
1001201011012010,
1001201010012020,
1001101011011010,
0000201000101110,
1001201010012010,
1001201011012020,
1001101010011000,
500000000000000000000008000000000000000000000000,
00000404,
,
,
10120101,
10101201,
10101012,
500000000000000000000008000000000000000000000000,
10100101,
10121201,
02010221,
01000404,
10120101,
10101101,
10101012,
1404,
10100101,
10121101,
02210201,
1110101011101000,
1001201010012010,
1001201011012020,
1001101010011010,
00210010,
3001201011012010,
1001201010012020,
1001101011011000,
500000000000000000000008000000000000000000000000,
00000404,
10210022,
11203030,
10210022,
11201022,
10210022,
04,
#END
#START P2
,
,
10201120,
10201122,
10201120,
12101010,
30210020,
11201022,
10210020,
11201022,
10210022,
11203030,
100000000000500000000000000000000008000000000000,
,
10120101,
10101101,
10101012,
500000000000000000000008000000000000000000000000,
10100101,
10121101,
02010221,
01000000,
10120101,
10101101,
10101012,
1404,
10100101,
10121101,
02210201,
0010000011101011,
1001201010012010,
1001201011012020,
1001101010011010,
00210010,
3001201011012010,
1001201010012020,
1001101011011000,
500000000000000000000008000000000000000000000000,
,
,
00000404,
10100101,
10121201,
10101012,
1,
10120101,
10101201,
02210201,
01000000,
10100101,
10121101,
10101012,
500000000000000000000008000000000000000000000000,
10120101,
10101101,
02010221,
1110101011101000,
1001201011012010,
1001201010012020,
1001101011011010,
0000201000101110,
1001201010012010,
1001201011012020,
1001101010011000,
500000000000000000000008000000000000000000000000,
11201022,
10210020,
11201022,
10210022,
11200404,
10210022,
3,
#END
STYLE:Single
SCOREINIT:600
SCOREDIFF:140
#START
000000000000000000000000000000000000000000000000,
000000000000000000000000000000000000000000000000,
100000000000200000000000100000100000200000000000,
100000000000200000000000100000100000200000200000,
100000000000200000000000100000100000200000000000,
100000200000100000000000100000200000200000000000,
300000000000200000100000000000000000200000200000,
100000100000200000000000100000000000400000000000,
100000000000200000100000000000000000200000200000,
100000100000200000000000100000200000000000200000,
100000000000200000100000000000000000200000200000,
100000100000200000000000300000000000300000000000,
100000000000200000100000000000000000200000200000,
500000000000000000000008000000000000000000000000,
100000000000100000200000000000100000000000100000,
100000000000100000200000100000100000000000100000,
100000000000100000000000100000000000100000200000,
100000000000000000000000000000000000000000000000,
100000000000100000200000000000100000000000100000,
100000000000100000200000100000100000000000100000,
000000200000200000100000000000200000200000100000,
000000100000000000000000000000000000000000000000,
100000000000100000200000000000100000000000100000,
100000000000100000200000100000100000000000100000,
100000000000100000000000100000000000100000200000,
100000000000400000000000000000000000400000000000,
100000000000100000200000000000100000000000100000,
100000000000100000200000100000100000000000100000,
000000200000200000100000000000200000200000100000,
000000100000000000000000100100100000100000100100,
100000000100200000100000100000000100200000100000,
100000000100200000100000100000000100200000200000,
100000000100100000100000100000000100100000100000,
000000000000200000100000000000100000200000000000,
100000000100200000100000100000000100200000100000,
100000000100200000100000100000000100200000200000,
100000000100100000100000100000000100100000000000,
500000000000000000000008000000000000000000000000,
000000000000000000000000000000400000000000400000,
000000000000000000000000000000000000000000000000,
000000000000000000000000000000400000000000400000,
100000000000100000200000000000100000000000100000,
100000000000100000200000100000200000000000100000,
100000000000100000000000100000000000100000200000,
100000000000000000000000000000000000000000000000,
100000000000100000200000000000100000000000100000,
100000000000100000200000100000200000000000100000,
000000200000200000100000000000200000200000100000,
000000100000000000000000000000400000000000400000,
100000000000100000200000000000100000000000100000,
100000000000100000200000100000200000000000100000,
100000000000100000000000100000000000100000200000,
100000000000400000000000000000000000400000000000,
100000000000100000200000000000100000000000100000,
100000000000100000200000100000200000000000100000,
000000200000200000100000000000200000200000100000,
100100100000100000100000100100100000100000000000,
100000000100200000100000100000000100200000100000,
100000000100200000100000100000000100200000200000,
100000000100100000100000100000000100100000100000,
000000000000200000100000000000100000200000000000,
100000000100200000100000100000000100200000100000,
100000000100200000100000100000000100200000200000,
100000000100100000100000100000000100100000000000,
500000000000000000000008000000000000000000000000,
100000100000200000000000100000000000400000000000,
100000000000200000100000000000000000200000200000,
100000100000200000000000100000200000000000200000,
100000000000200000100000000000000000200000200000,
100000100000200000000000300000000000300000000000,
100000000000200000100000000000000000200000200000,
300000000000000000000000400000000000000000000000,
#GOGOEND
#END
COURSE:Normal
LEVEL:2
STYLE:Double
SCOREINIT:1070
#START P1
,
,
1202,
10201120,
1202,
10201120,
10110000,
11101000,
10110000,
11101000,
100000000000000000500000000000000008000000000000,
0022,
100000000000000000500000000000000008000000000000,
,
10101100,
10101100,
1111,
1,
10101100,
10101101,
02010201,
01000000,
00210120,
00210220,
00210120,
1202,
00210120,
00210201,
02010201,
01000000,
10011020,
1112,
1110,
1,
1112,
10011020,
1011,
500000000000000000000008000000000000000000000000,
00000404,
05,
000000000000000000000008000000000000000000000000,
00210120,
00210220,
00210120,
1,
00210120,
00210201,
02010201,
01000000,
10101101,
10101101,
1111,
1,
10101101,
10101101,
02010201,
01000000,
1112,
10011020,
1011,
1,
10011020,
1112,
1110,
500000000000000000000008000000000000000000000000,
00000404,
000000000000000000500000000000000008000000000000,
2220,
10110000,
11101000,
100000000000000000500000000000000008000000000000,
04,
#END
#START P2
,
,
10201120,
1202,
10201120,
11201020,
100000000000000000500000000000000008000000000000,
0022,
100000000000000000500000000000000008000000000000,
2220,
10110000,
11101000,
10110000,
500000000000000000000008000000000000000000000000,
00210120,
00210220,
00210120,
1,
00210120,
00210201,
02010201,
01000000,
10101100,
10101100,
1111,
1,
10101100,
10101101,
02010201,
01000000,
1112,
10011020,
1011,
1,
10011020,
1112,
1110,
500000000000000000000008000000000000000000000000,
,
500000000000000000000000000000000000000000000008,
,
10101101,
10101101,
1111,
1,
10101101,
10101101,
02010201,
01000404,
00210120,
00210220,
00210120,
1404,
00210120,
00210201,
02010201,
01000000,
10011020,
1112,
1110,
1,
1112,
10011020,
1011,
500000000000000000000008000000000000000000000000,
,
10110000,
11101000,
100000000000000000500000000000000008000000000000,
0022,
10110000,
3,
#END
STYLE:Single
SCOREINIT:750
SCOREDIFF:190
#START
000000000000000000000000000000000000000000000000,
000000000000000000000000000000000000000000000000,
100000000000200000000000000000000000200000000000,
100000000000200000000000100000100000200000000000,
100000000000200000000000000000000000200000000000,
100000100000200000000000100000100000200000000000,
100000000000100000100000000000000000000000000000,
100000100000100000000000100000000000000000000000,
100000000000100000100000000000000000000000000000,
200000000000200000000000200000000000000000000000,
100000000000100000100000000000000000000000000000,
100000100000100000000000100000000000000000000000,
100000000000000000500000000000000000000000800000,
000000000000000000000000000000000000000000000000,
100000000000100000000000100000100000000000000000,
100000000000100000000000100000100000000000000000,
100000000000100000000000100000000000100000000000,
100000000000000000000000000000000000000000000000,
100000000000100000000000100000100000000000000000,
100000000000100000000000100000100000000000100000,
000000200000000000100000000000200000000000100000,
000000100000000000000000000000000000000000000000,
100000000000100000000000100000100000000000000000,
100000000000100000000000100000100000000000000000,
100000000000100000000000100000000000100000000000,
100000000000000000000000000000000000000000000000,
100000000000100000000000100000100000000000000000,
100000000000100000000000100000100000000000100000,
000000200000000000100000000000200000000000100000,
000000100000000000000000000000000000000000000000,
100000000000000000100000100000000000200000000000,
100000000000000000100000100000200000200000000000,
100000000000100000000000100000000000100000100000,
000000000000000000000000000000000000000000000000,
100000000000000000100000100000000000200000000000,
100000000000000000100000100000200000200000000000,
100000000000100000000000100000000000100000000000,
500000000000800000000000000000000000000000000000,
000000000000000000000000000000400000000000400000,
000000000000000000000000000000000000000000000000,
500000000000000000800000000000000000000000000000,
100000000000100000000000100000100000000000100000,
100000000000100000000000100000100000000000100000,
100000000000100000000000100000000000100000000000,
100000000000000000000000000000000000000000000000,
100000000000100000000000100000100000000000100000,
100000000000100000000000100000100000000000100000,
000000200000000000100000000000200000000000100000,
000000100000000000000000000000000000000000000000,
100000000000100000000000100000100000000000100000,
100000000000100000000000100000100000000000100000,
100000000000100000000000100000000000100000000000,
100000000000400000000000000000000000400000000000,
100000000000100000000000100000100000000000100000,
100000000000100000000000100000100000000000100000,
000000200000000000100000000000200000000000100000,
000000100000000000000000000000000000000000000000,
100000000000000000100000100000000000200000000000,
100000000000000000100000100000200000200000000000,
100000000000100000000000100000000000100000000000,
100000000000000000000000000000000000000000000000,
100000000000000000100000100000000000200000000000,
100000000000000000100000100000200000200000000000,
100000000000100000000000100000000000100000000000,
500000000000000000800000000000000000000000000000,
000000000000000000000000000000400000000000400000,
000000000000000000000000000000000000000000000000,
200000000000200000000000200000000000000000000000,
100000000000100000100000000000000000000000000000,
100000100000100000000000100000000000000000000000,
100000000000000000500000000000000000800000000000,
300000000000000000000000400000000000000000000000,
#END
COURSE:Easy
LEVEL:4
STYLE:Double
SCOREINIT:1070
#START P1
,
,
1002,
1002,
1002,
1202,
500000000000000000000008000000000000000000000000,
1110,
000000000000000000000000500000000000000000000008,
0022,
500000000000000000000008000000000000000000000000,
1110,
000000000000000000000000500000000000000000000008,
,
1102,
1102,
11,
1,
1102,
1102,
12,
1,
0202,
00200220,
0202,
,
0202,
00200220,
0202,
,
10011000,
1220,
1011,
1,
1110,
20022000,
1110,
3,
0022,
500000000000000000000008000000000000000000000000,
,
0202,
00200220,
0202,
00200220,
0202,
00200220,
0202,
0200,
10110020,
1011002,
11,
1,
10110020,
10110020,
12,
1,
1110,
20022000,
1110,
1,
10011000,
2220,
1011,
1,
0022,
500000000000000000000008000000000000000000000000,
1110,
000000000000000000000000500000000000000000000008,
0022,
500000000000000000000008000000000000000000000000,
3,
#END
#START P2
,
,
0202,
0202,
0202,
0202,
100000000000000000000000500000000000000000000008,
0022,
500000000000000000000008000000000000000000000000,
1110,
000000000000000000000000500000000000000000000008,
0022,
500000000000000000000008000000000000000000000000,
,
0202,
00200220,
0202,
,
0202,
00200220,
0202,
0200,
1102,
1102,
11,
1,
1102,
1102,
12,
1,
1110,
20022000,
1110,
1,
10011000,
2220,
1011,
1,
1110,
000000000000000000000000500000000000000000000008,
,
10110020,
10110020,
11,
1,
10110020,
10110020,
12,
1,
0202,
00200220,
0202,
0101,
0202,
00200220,
0202,
0200,
10011000,
2220,
1011,
1,
1110,
20022000,
1110,
1,
1110,
100000000000000000000000500000000000000000000008,
0022,
500000000000000000000008000000000000000000000000,
1110,
000000000000000000000000500000000000000000000008,
04,
#END
STYLE:Single
SCOREINIT:910
SCOREDIFF:270
#START
000000000000000000000000000000000000000000000000,
000000000000000000000000000000000000000000000000,
100000000000000000000000000000000000200000000000,
100000000000000000000000000000000000200000000000,
100000000000000000000000000000000000200000000000,
100000000000200000000000100000000000200000000000,
100000000000000000100000000000000000000000000000,
100000000000100000000000100000000000000000000000,
100000000000000000100000000000000000000000000000,
200000000000200000000000200000000000000000000000,
100000000000000000100000000000000000000000000000,
100000000000100000000000100000000000000000000000,
100000000000000000500000000000000000000000800000,
000000000000000000000000000000000000000000000000,
100000000000100000000000000000000000200000000000,
100000000000100000000000000000000000200000000000,
100000000000000000000000100000000000000000000000,
300000000000000000000000000000000000000000000000,
100000000000100000000000000000000000200000000000,
100000000000100000000000000000000000200000000000,
100000000000000000000000200000000000000000000000,
300000000000000000000000000000000000000000000000,
100000000000100000000000000000000000200000000000,
100000000000100000000000000000000000200000000000,
100000000000000000000000100000000000000000000000,
300000000000000000000000000000000000000000000000,
100000000000100000000000000000000000200000000000,
100000000000100000000000000000000000200000000000,
100000000000000000000000200000000000000000000000,
300000000000000000000000000000000000000000000000,
100000000000000000100000100000000000000000000000,
100000000000000000200000200000000000000000000000,
100000000000100000000000100000000000100000000000,
100000000000000000000000000000000000000000000000,
100000000000000000100000100000000000000000000000,
100000000000000000200000200000000000000000000000,
100000000000100000000000100000000000100000000000,
100000000000000000000000000000000000000000000000,
000000000000000000000000000000200000000000200000,
000000000000000000500000000000000000000000000000,
000000000000000000800000000000000000000000000000,
100000000000100000000000000000000000200000000000,
100000000000100000100000000000000000200000000000,
100000000000100000000000100000000000100000000000,
100000000000000000000000000000000000000000000000,
100000000000100000000000000000000000200000000000,
100000000000100000100000000000000000200000000000,
100000000000000000000000100000000000000000000000,
300000000000000000000000000000000000000000000000,
100000000000100000000000000000000000200000000000,
100000000000100000100000000000000000200000000000,
100000000000100000000000100000000000100000000000,
100000000000000000000000000000000000000000000000,
100000000000100000000000000000000000200000000000,
100000000000100000100000000000000000200000000000,
100000000000000000000000200000000000000000000000,
300000000000000000000000000000000000000000000000,
100000000000000000100000100000000000000000000000,
100000000000000000200000200000000000000000000000,
100000000000100000000000100000000000100000000000,
100000000000000000000000000000000000000000000000,
100000000000000000100000100000000000000000000000,
100000000000000000200000200000000000000000000000,
100000000000100000000000100000000000100000000000,
100000000000000000000000000000000000000000000000,
000000000000000000000000000000200000000000200000,
000000000000000000000000000000000000000000000000,
100000000000100000000000100000000000000000000000,
000000000000000000000000000000000000000000000000,
200000000000200000000000200000000000000000000000,
100000000000000000100000000000000000000000000000,
300000000000000000000000400000000000000000000000,
#END