321 lines
13 KiB
Plaintext
321 lines
13 KiB
Plaintext
//TJADB Project
|
|
TITLE:Mayday
|
|
TITLEJA:メーデー
|
|
SUBTITLE:--BUMP OF CHICKEN
|
|
BPM:140
|
|
WAVE:Mayday.ogg
|
|
OFFSET:-8.798
|
|
DEMOSTART:77.369
|
|
|
|
COURSE:Oni
|
|
LEVEL:7
|
|
SCOREINIT:670
|
|
SCOREDIFF:150
|
|
|
|
|
|
#START
|
|
|
|
|
|
100000000000200000100000000000100000200000000000,
|
|
100000100000200000100000000000100000200000000000,
|
|
100000000000200000100000000000100000200000000000,
|
|
100000100000200000100000000000100000200000000000,
|
|
100000000000200000100100100000100000200000100100,
|
|
100000100000200000100000000000100000200000000000,
|
|
100000000000200000100100100000100000200000100100,
|
|
100000100000200000100000000000100000200000100100,
|
|
100000000000100000000000100000100100100000200000,
|
|
100000000000100000000000100000100000200000000000,
|
|
100000000000100000000000100000200200200000100000,
|
|
200000100000200000100100100000200000200000000000,
|
|
100000000000100000000000100000100100100000200000,
|
|
100000000000100000000000100000100000200000000000,
|
|
100000000000100000000000100000200200200000100000,
|
|
200000100000200000100100100000200000200000000000,
|
|
100000100000200000100100000000100000200000100100,
|
|
000000100000200000100100100000100000200000000000,
|
|
100000100000200000100100000000100000200000100100,
|
|
200000100000200000000000100000100000200000000000,
|
|
100000100000200000100100000000100000200000100100,
|
|
000000100000200000100100100000100000200000000000,
|
|
100000100000200000100100000000100000200000100100,
|
|
200000100000200000000000100000100000200000100100,
|
|
100000000000100000000000100000200200100000100000,
|
|
100000000000100000000000100000200200100000100100,
|
|
100000000000100000000000100000200200100000100000,
|
|
100000000000100000000000100000200200100000100100,
|
|
100000100000200000100100000000100000200000100100,
|
|
000000100000200000100100100000100000200000000000,
|
|
100000100000200000100100000000100000200000100100,
|
|
200000100000200000100000000000100000200200200000,
|
|
100000100000200200100100000000100000200200100100,
|
|
000000100000200200100100100000100000200000100100,
|
|
000000100000200000100100100000100000200200100100,
|
|
100000100000200000000000200200100100200000100100,
|
|
100000100000200200100100000000100000200200100100,
|
|
000000100000200200100100100000100000200000100100,
|
|
000000100000200000100100100000100000200200100100,
|
|
200000100000200000100000200000200000200200200200,
|
|
|
|
#GOGOSTART
|
|
100000000000100000000000100000100100100000200000,
|
|
100000100100100000100100200000000000200000000000,
|
|
100000000000100000000000100000100100100000200000,
|
|
100000200200200000100100100000000000200000000000,
|
|
100000000000100000000000100000100100100000200000,
|
|
100000200200200000100000000000100000200000200000,
|
|
100000000000100000000000100000100100100000200000,
|
|
100100100100100000100100100000300000400000000000,
|
|
100000000000100000000000100000100100100000200000,
|
|
100000100100100000100100200000000000200000000000,
|
|
100000000000100000000000100000100100100000200000,
|
|
100000200200200000100100100000000000200000000000,
|
|
100000000000100000000000100000100100100000200000,
|
|
100000200200200000100000000000100000200000200000,
|
|
100000000000100000000000100000100100100000300000,
|
|
300000000000300000300000000000300000300000000000,
|
|
100000200000000000100000000000200000000000100000,
|
|
100000200000000000100000200000100000200000100100,
|
|
100000200000000000100000000000200000000000100000,
|
|
200000100000100000200000100200200000200000000000,
|
|
|
|
#GOGOEND
|
|
|
|
|
|
#END
|
|
|
|
|
|
COURSE:Hard
|
|
LEVEL:5
|
|
SCOREINIT:590
|
|
SCOREDIFF:160
|
|
|
|
|
|
#START
|
|
|
|
|
|
100000000000000000100000000000100000200000000000,
|
|
100000100000200000000000000000100000200000000000,
|
|
100000000000000000100000000000100000200000000000,
|
|
100000100000200000000000000000100000200000000000,
|
|
100000000000000000100100100000100000200000000000,
|
|
100000100000200000000000000000100000200000000000,
|
|
100000000000000000100100100000100000200000000000,
|
|
100000100000200000000000000000100000200000000000,
|
|
100000000000100000000000100000100100100000000000,
|
|
100000000000100000000000100000100000200000000000,
|
|
100000000000100000000000100000100100100000000000,
|
|
100000000000100000000000100000200000200000000000,
|
|
100000000000100000000000100000100100100000000000,
|
|
100000000000100000000000100000100000200000000000,
|
|
100000000000100000000000100000100100100000000000,
|
|
100000000000100000000000100000200000200000000000,
|
|
100000000000200000100100100000100000200000000000,
|
|
100000000000200000100100100000000000200000000000,
|
|
100000000000200000100100100000100000200000000000,
|
|
100000000000200000000000100000100000200000000000,
|
|
100000000000200000100100100000100000200000000000,
|
|
100000000000200000100100100000000000200000000000,
|
|
100000000000200000100100100000100000200000000000,
|
|
100000000000200000000000100000100000200000000000,
|
|
100000000000100000000000100000200000100000000000,
|
|
100000200000100000200000000000100000200000000000,
|
|
100000000000100000000000100000200000100000000000,
|
|
100000200000100000200000000000200000200000000000,
|
|
100000000000200000100100100000100000200000000000,
|
|
100000000000200000100100100000000000200000000000,
|
|
100000000000200000100100100000100000200000000000,
|
|
100000000000200000100000000000100000200000000000,
|
|
100000100000200000100000000000100000200000100000,
|
|
000000100000200000100000000000100000200000100000,
|
|
000000100000200000100000200000000000200000100100,
|
|
100000100000100000000000000000000000100000100000,
|
|
000000100000200000100000000000100000200000100000,
|
|
000000100000200000100000000000100000200000100000,
|
|
000000100000200000100000200000000000200000000000,
|
|
100000100000200000000000200000200000200200200000,
|
|
|
|
#GOGOSTART
|
|
100000000000100000000000100000100100100000000000,
|
|
100000100100100000000000100000000000200000000000,
|
|
100000000000100000000000100000100100100000000000,
|
|
100000200200200000100000100000000000200000000000,
|
|
100000000000100000000000100000100100100000000000,
|
|
100000200200200000100000000000100000200000000000,
|
|
100000000000100000100000000000100000100000000000,
|
|
100000000000100000000000300000000000300000000000,
|
|
100000000000100000000000100000100100100000000000,
|
|
100000100100100000000000100000000000200000000000,
|
|
100000000000100000000000100000100100100000000000,
|
|
100000200200200000100000100000000000200000000000,
|
|
100000000000100000000000100000100100100000000000,
|
|
100000200200200000100000000000100000200000000000,
|
|
100000000000100000100000000000100000000000300000,
|
|
300000000000300000300000000000300000300000000000,
|
|
100000200000000000100000000000200000000000100000,
|
|
100000200000000000100000200000100000200000000000,
|
|
100000200000000000100000000000200000000000100000,
|
|
200000100000100000200000200200200000200000000000,
|
|
|
|
#GOGOEND
|
|
|
|
|
|
#END
|
|
|
|
|
|
COURSE:Normal
|
|
LEVEL:4
|
|
BALLOON:15
|
|
SCOREINIT:990
|
|
SCOREDIFF:270
|
|
|
|
|
|
#START
|
|
|
|
|
|
100000000000000000000000000000000000000000000000,
|
|
100000000000100000000000000000000000000000000000,
|
|
100000000000000000000000000000000000000000000000,
|
|
100000000000100000000000000000000000000000000000,
|
|
100000000000000000000000100000000000000000000000,
|
|
100000000000100000000000000000000000100000000000,
|
|
100000000000000000000000100000000000000000000000,
|
|
100000000000100000000000000000000000200000000000,
|
|
100000000000100000000000100000000000200000000000,
|
|
100000000000100000000000100000000000000000000000,
|
|
100000000000100000000000200000000000200000000000,
|
|
100000000000100000000000100000000000000000000000,
|
|
100000000000100000000000100000000000200000000000,
|
|
100000000000100000000000100000000000000000000000,
|
|
100000000000100000000000200000000000200000000000,
|
|
100000000000100000000000100000000000000000000000,
|
|
100000000000000000000000100000000000000000000000,
|
|
100000000000100000000000100000000000000000000000,
|
|
100000000000000000000000100000000000000000000000,
|
|
200000000000200000000000200000000000000000000000,
|
|
100000000000000000000000100000000000000000000000,
|
|
100000000000100000000000100000000000000000000000,
|
|
100000000000000000000000100000000000000000000000,
|
|
200000000000200000000000200000000000000000000000,
|
|
100000000000100000000000200000000000200000000000,
|
|
100000000000100000000000100000000000000000000000,
|
|
100000000000100000000000200000000000200000000000,
|
|
100000000000100000000000100000000000000000000000,
|
|
100000000000000000000000100000000000000000000000,
|
|
100000000000100000000000100000000000000000000000,
|
|
100000000000000000000000100000000000000000000000,
|
|
100000000000100000000000100000000000000000000000,
|
|
100000000000200000000000100000000000000000000000,
|
|
100000000000200000000000100000000000100000000000,
|
|
100000000000000000000000100000000000100000000000,
|
|
100000000000000000000000000000000000000000000000,
|
|
100000000000200000000000100000000000000000000000,
|
|
100000000000200000000000100000000000100000000000,
|
|
100000000000000000000000100000000000100000000000,
|
|
500000000000000000000000800000000000000000000000,
|
|
#GOGOSTART
|
|
100000000000100000000000100000100000100000000000,
|
|
100000000000100000000000100000000000000000000000,
|
|
100000000000100000000000100000100000100000000000,
|
|
200000000000200000000000200000000000000000000000,
|
|
100000000000100000000000100000100000100000000000,
|
|
100000000000100000000000200000000000200000000000,
|
|
100000000000000000000000100000000000000000000000,
|
|
500000000000000000000000800000000000000000000000,
|
|
100000000000100000000000100000100000100000000000,
|
|
100000000000100000000000100000000000000000000000,
|
|
100000000000100000000000100000100000100000000000,
|
|
200000000000200000000000200000000000000000000000,
|
|
100000000000100000000000100000100000100000000000,
|
|
100000000000100000000000200000000000200000000000,
|
|
100000000000000000000000000000000000000000000000,
|
|
300000000000300000000000300000000000300000000000,
|
|
600000000000000000000000000000800000000000000000,
|
|
000000000000000000000000000000000000000000000000,
|
|
900000000000000000000000000000000000000000000000,
|
|
000000000000000000000000000000000000000000000008,
|
|
|
|
#GOGOEND
|
|
|
|
|
|
#END
|
|
|
|
|
|
COURSE:Easy
|
|
LEVEL:3
|
|
BALLOON:10
|
|
SCOREINIT:660
|
|
SCOREDIFF:200
|
|
|
|
|
|
#START
|
|
|
|
|
|
100000000000000000000000000000000000000000000000,
|
|
100000000000100000000000000000000000000000000000,
|
|
100000000000000000000000000000000000000000000000,
|
|
100000000000100000000000000000000000000000000000,
|
|
100000000000000000000000000000000000100000000000,
|
|
100000000000100000000000000000000000000000000000,
|
|
100000000000000000000000000000000000100000000000,
|
|
100000000000100000000000000000000000000000000000,
|
|
100000000000100000000000100000000000000000000000,
|
|
100000000000100000000000100000000000000000000000,
|
|
100000000000100000000000100000000000000000000000,
|
|
200000000000200000000000200000000000000000000000,
|
|
100000000000100000000000100000000000000000000000,
|
|
100000000000100000000000100000000000000000000000,
|
|
100000000000100000000000100000000000000000000000,
|
|
500000000000000000000000800000000000000000000000,
|
|
100000000000000000000000100000000000000000000000,
|
|
100000000000100000000000100000000000000000000000,
|
|
100000000000000000000000100000000000000000000000,
|
|
100000000000100000000000100000000000000000000000,
|
|
100000000000000000000000100000000000000000000000,
|
|
100000000000100000000000100000000000000000000000,
|
|
100000000000000000000000100000000000000000000000,
|
|
100000000000100000000000100000000000000000000000,
|
|
100000000000100000000000100000000000000000000000,
|
|
200000000000200000000000200000000000000000000000,
|
|
100000000000100000000000100000000000000000000000,
|
|
200000000000200000000000200000000000000000000000,
|
|
100000000000000000000000100000000000000000000000,
|
|
100000000000100000000000100000000000000000000000,
|
|
100000000000000000000000100000000000000000000000,
|
|
100000000000100000000000100000000000000000000000,
|
|
100000000000200000000000100000000000000000000000,
|
|
100000000000200000000000100000000000000000000000,
|
|
100000000000000000000000100000000000100000000000,
|
|
100000000000000000000000000000000000000000000000,
|
|
100000000000200000000000100000000000000000000000,
|
|
100000000000200000000000100000000000000000000000,
|
|
100000000000000000000000100000000000100000000000,
|
|
500000000000000000000000800000000000000000000000,
|
|
#GOGOSTART
|
|
100000000000100000000000100000000000100000000000,
|
|
100000000000100000000000100000000000000000000000,
|
|
100000000000100000000000100000000000100000000000,
|
|
100000000000100000000000100000000000000000000000,
|
|
100000000000100000000000100000000000100000000000,
|
|
100000000000000000000000100000000000000000000000,
|
|
100000000000000000000000100000000000100000000000,
|
|
500000000000000000000000800000000000000000000000,
|
|
100000000000100000000000100000000000100000000000,
|
|
100000000000100000000000100000000000000000000000,
|
|
100000000000100000000000100000000000100000000000,
|
|
100000000000100000000000100000000000000000000000,
|
|
100000000000100000000000100000000000100000000000,
|
|
100000000000000000000000100000000000000000000000,
|
|
100000000000000000000000000000000000000000000000,
|
|
300000000000300000000000300000000000300000000000,
|
|
600000000000000000000000000000800000000000000000,
|
|
000000000000000000000000000000000000000000000000,
|
|
900000000000000000000000000000000000000000000000,
|
|
000000000000000000000000000000000000000000000008,
|
|
|
|
#GOGOEND
|
|
|
|
|
|
#END
|
|
|