638 lines
15 KiB
Plaintext
638 lines
15 KiB
Plaintext
//TJADB Project
|
|
TITLE:Minimoni. Jan-Ken-Pyon!
|
|
TITLEJA:ミニモニ。ジャンケンぴょん!
|
|
SUBTITLE:--Minimoni.
|
|
BPM:162
|
|
WAVE:Minimoni. Jan-Ken-Pyon!.ogg
|
|
OFFSET:-1.527
|
|
DEMOSTART:41.524
|
|
|
|
COURSE:Oni
|
|
LEVEL:6
|
|
|
|
|
|
#START
|
|
|
|
|
|
,
|
|
,
|
|
,
|
|
01,
|
|
10011000,
|
|
01,
|
|
10011000,
|
|
01,
|
|
10011000,
|
|
01,
|
|
10011000,
|
|
|
|
#BRANCHSTART p,75,90
|
|
#N
|
|
10011000,
|
|
10011000,
|
|
10011000,
|
|
11100000,
|
|
10011000,
|
|
10011000,
|
|
10011000,
|
|
11100000,
|
|
11101110,
|
|
11100020,
|
|
11101110,
|
|
11100020,
|
|
02,
|
|
02,
|
|
500000000000000000000000000000000000000000000008,
|
|
,
|
|
0202,
|
|
1100,
|
|
0202,
|
|
1130,
|
|
0202,
|
|
1100,
|
|
0202,
|
|
1130,
|
|
02,
|
|
02,
|
|
500000000000000000000000000000000000000000000008,
|
|
,
|
|
11100000,
|
|
00113000,
|
|
,
|
|
,
|
|
,
|
|
0110,
|
|
10011000,
|
|
10011000,
|
|
10011000,
|
|
00001110,
|
|
10011000,
|
|
10011000,
|
|
10011000,
|
|
11100000,
|
|
11101110,
|
|
11100020,
|
|
11101110,
|
|
11100020,
|
|
02,
|
|
02,
|
|
500000000000000000000000000000000000000000000008,
|
|
,
|
|
0202,
|
|
0011,
|
|
0202,
|
|
1130,
|
|
0202,
|
|
0011,
|
|
0202,
|
|
1130,
|
|
02,
|
|
02,
|
|
500000000000000000000000000000000000000000000008,
|
|
,
|
|
00002220,
|
|
00113000,
|
|
|
|
#E
|
|
10011020,
|
|
10011020,
|
|
10011020,
|
|
11100000,
|
|
10011020,
|
|
10011020,
|
|
10011020,
|
|
11100000,
|
|
11101110,
|
|
11102220,
|
|
11101110,
|
|
11102220,
|
|
1111,
|
|
11,
|
|
500000000000000000000000000000000000000000000008,
|
|
,
|
|
02020202,
|
|
11100000,
|
|
02020202,
|
|
100000100000100000100000500000000000000008000000,
|
|
02020202,
|
|
11100000,
|
|
02020202,
|
|
11113000,
|
|
1111,
|
|
11,
|
|
500000000000000000000000000000000000000000000008,
|
|
,
|
|
1111100000000000,
|
|
00113000,
|
|
,
|
|
,
|
|
,
|
|
0000200011111000,
|
|
00111020,
|
|
00111020,
|
|
00111020,
|
|
00002220,
|
|
00111020,
|
|
00111020,
|
|
00111020,
|
|
00002220,
|
|
11201120,
|
|
11201110,
|
|
11201120,
|
|
11201110,
|
|
1111,
|
|
11,
|
|
500000000000000000000000000000000000000000000008,
|
|
,
|
|
02020202,
|
|
00001110,
|
|
02020202,
|
|
100000100000100000100000500000000000000008000000,
|
|
02020202,
|
|
00001110,
|
|
02020202,
|
|
11113000,
|
|
1111,
|
|
11,
|
|
500000000000000000000000000000000000000000000008,
|
|
,
|
|
0000000022222000,
|
|
00113000,
|
|
|
|
#M
|
|
1001101010002000,
|
|
1001101010002000,
|
|
1001101010002000,
|
|
1110100022202000,
|
|
1001101010002000,
|
|
1001101010002000,
|
|
1001101010002000,
|
|
1110100022202000,
|
|
1001101010011010,
|
|
1001101022202000,
|
|
1001101010011010,
|
|
1001101022202000,
|
|
1001101010000000,
|
|
1001101010000000,
|
|
1001101010000000,
|
|
0022202022202000,
|
|
12020202,
|
|
1110200011102000,
|
|
12020202,
|
|
1011101010222020,
|
|
12020202,
|
|
1110200011102000,
|
|
12020202,
|
|
1011101010000000,
|
|
1001101010000000,
|
|
1001101010000000,
|
|
1001101010101000,
|
|
1001101010101000,
|
|
1111100022222000,
|
|
00113000,
|
|
,
|
|
,
|
|
,
|
|
0000200011111000,
|
|
1001101010002000,
|
|
1001101010002000,
|
|
1001101010002000,
|
|
1110100022202000,
|
|
1001101010002000,
|
|
1001101010002000,
|
|
1001101010002000,
|
|
1110100022202000,
|
|
1001101010011010,
|
|
1001101022202000,
|
|
1001101010011010,
|
|
1001101022202000,
|
|
1001101010000000,
|
|
1001101010000000,
|
|
1001101010000000,
|
|
0022202022202000,
|
|
12020202,
|
|
1110200011102000,
|
|
12020202,
|
|
1011101010222020,
|
|
12020202,
|
|
1110200011102000,
|
|
12020202,
|
|
1011101010000000,
|
|
1001101010000000,
|
|
1001101010000000,
|
|
1001101010101000,
|
|
1001101010101000,
|
|
1111100022222000,
|
|
00113000,
|
|
|
|
#BRANCHEND
|
|
|
|
|
|
#END
|
|
|
|
|
|
COURSE:Hard
|
|
LEVEL:4
|
|
BALLOON:12,12,12,12,12,12
|
|
SCOREINIT:530
|
|
SCOREDIFF:120
|
|
|
|
|
|
#START
|
|
|
|
|
|
,
|
|
,
|
|
,
|
|
10220020,
|
|
10220020,
|
|
10220020,
|
|
10220020,
|
|
10220020,
|
|
10220020,
|
|
10220020,
|
|
10220020,
|
|
|
|
#BRANCHSTART p,75,90
|
|
#N
|
|
1001101010000000,
|
|
1001101010000000,
|
|
1001101010000000,
|
|
1110100020202000,
|
|
1001101010000000,
|
|
1001101010000000,
|
|
1001101010000000,
|
|
1110100000002000,
|
|
1001100010011000,
|
|
1001100020202000,
|
|
1001100010011000,
|
|
1001100020202000,
|
|
100000000000100000000000500000000000000008000000,
|
|
100000000000100000000000500000000000000008000000,
|
|
7,
|
|
8000200011111000,
|
|
02020202,
|
|
1110200011102000,
|
|
02020202,
|
|
1110100022202000,
|
|
02020202,
|
|
1110200011102000,
|
|
02020202,
|
|
1011101010000000,
|
|
100000000000100000000000500000000000000008000000,
|
|
100000000000100000000000500000000000000008000000,
|
|
600000000000000000000000000000000000000008000000,
|
|
,
|
|
1111100022222000,
|
|
00113000,
|
|
,
|
|
,
|
|
,
|
|
0220,
|
|
1001101010000000,
|
|
1001101010000000,
|
|
1001101010000000,
|
|
1110100020202000,
|
|
1001101010000000,
|
|
1001101010000000,
|
|
1001101010000000,
|
|
1110100000002000,
|
|
1001100010011000,
|
|
1001100020202000,
|
|
1001100010011000,
|
|
1001100020202000,
|
|
100000000000100000000000500000000000000008000000,
|
|
100000000000100000000000500000000000000008000000,
|
|
7,
|
|
8000200011111000,
|
|
02020202,
|
|
1110200011102000,
|
|
02020202,
|
|
1110100022202000,
|
|
02020202,
|
|
1110200011102000,
|
|
02020202,
|
|
1011101010000000,
|
|
100000000000100000000000500000000000000008000000,
|
|
100000000000100000000000500000000000000008000000,
|
|
600000000000000000000000000000000000000008000000,
|
|
,
|
|
1111100022222000,
|
|
00113000,
|
|
|
|
#E
|
|
1001101010002000,
|
|
1001101010002000,
|
|
1001101010002000,
|
|
1110100022202000,
|
|
1001101010002000,
|
|
1001101010002000,
|
|
1001101010002000,
|
|
1110100000202000,
|
|
1001101010011010,
|
|
1001101022202000,
|
|
1001101010011010,
|
|
1001101022202000,
|
|
100000000000100000000000500000000000000008000000,
|
|
100000000000100000000000500000000000000008000000,
|
|
7,
|
|
8000200011111000,
|
|
02020202,
|
|
1110200011102000,
|
|
02020202,
|
|
1011101022202000,
|
|
02020202,
|
|
1110200011102000,
|
|
02020202,
|
|
1011101010000000,
|
|
100000000000100000000000500000000000000008000000,
|
|
100000000000100000000000500000000000000008000000,
|
|
600000000000000000000000000000000000000008000000,
|
|
,
|
|
1111100022222000,
|
|
00113000,
|
|
20022022,
|
|
02022220,
|
|
20022022,
|
|
0000200011111000,
|
|
1001101010002000,
|
|
1001101010002000,
|
|
1001101010002000,
|
|
1110100022202000,
|
|
1001101010002000,
|
|
1001101010002000,
|
|
1001101010002000,
|
|
1110100000202000,
|
|
1001101010011010,
|
|
1001101022202000,
|
|
1001101010011010,
|
|
1001101022202000,
|
|
100000000000100000000000500000000000000008000000,
|
|
100000000000100000000000500000000000000008000000,
|
|
7,
|
|
8000200011111000,
|
|
02020202,
|
|
1110200011102000,
|
|
02020202,
|
|
1011101022202000,
|
|
02020202,
|
|
1110200011102000,
|
|
02020202,
|
|
1011101010000000,
|
|
1130,
|
|
1130,
|
|
600000000000000000000000000000000000000008000000,
|
|
,
|
|
1111100022222000,
|
|
00113000,
|
|
|
|
#M
|
|
1001101010002000,
|
|
1001101010002000,
|
|
1001101010002000,
|
|
1110100022202000,
|
|
1001101010202000,
|
|
1001101010202000,
|
|
1001101010202000,
|
|
1110100000202000,
|
|
1001102010011020,
|
|
1001102011102000,
|
|
1001102010011020,
|
|
1001102011102000,
|
|
100000000100100000200000500000000000000008000000,
|
|
100000000100100000200000500000000000000008000000,
|
|
7,
|
|
8000000011111000,
|
|
02020202,
|
|
1110200011102000,
|
|
02020202,
|
|
1011102011102000,
|
|
02020202,
|
|
1110200011102000,
|
|
02020202,
|
|
1011102010000000,
|
|
1001102010011020,
|
|
1001102010011020,
|
|
600000000000000000000000000000000000000008000000,
|
|
,
|
|
1111100022222000,
|
|
00113000,
|
|
20022022,
|
|
02022220,
|
|
20022022,
|
|
0000200011111000,
|
|
1001101010002000,
|
|
1001101010002000,
|
|
1001101010002000,
|
|
1110100022202000,
|
|
1001101010202000,
|
|
1001101010202000,
|
|
1001101010202000,
|
|
1110100000202000,
|
|
1001102010011020,
|
|
1001102011102000,
|
|
1001102010011020,
|
|
1001102011102000,
|
|
100000000100100000200000500000000000000008000000,
|
|
100000000100100000200000500000000000000008000000,
|
|
7,
|
|
8000000011111000,
|
|
02020202,
|
|
1110200011102000,
|
|
02020202,
|
|
1011102011102000,
|
|
02020202,
|
|
1110200011102000,
|
|
02020202,
|
|
1011102010000000,
|
|
1001102010011020,
|
|
1001102010011020,
|
|
600000000000000000000000000000000000000008000000,
|
|
,
|
|
1111100022222000,
|
|
00113000,
|
|
|
|
#BRANCHEND
|
|
|
|
|
|
#END
|
|
|
|
|
|
COURSE:Normal
|
|
LEVEL:3
|
|
SCOREINIT:760
|
|
SCOREDIFF:190
|
|
|
|
|
|
#START
|
|
|
|
|
|
000000000000000000000000000000000000000000000000,
|
|
000000000000000000000000000000000000000000000000,
|
|
000000000000000000000000000000000000000000000000,
|
|
100000000000200000200000000000000000200000000000,
|
|
100000000000200000200000000000000000200000000000,
|
|
100000000000200000200000000000000000200000000000,
|
|
100000000000200000200000000000000000200000000000,
|
|
100000000000200000200000000000000000200000000000,
|
|
100000000000200000200000000000000000200000000000,
|
|
100000000000200000200000000000000000200000000000,
|
|
100000000000200000200000000000000000200000000000,
|
|
100000000000000000100000100000000000200000000000,
|
|
100000000000000000100000100000000000200000000000,
|
|
100000000000000000100000100000000000200000000000,
|
|
100000100000100000000000000000000000000000000000,
|
|
100000000000000000100000100000000000200000000000,
|
|
100000000000000000100000100000000000200000000000,
|
|
100000000000000000100000100000000000200000000000,
|
|
100000100000100000000000000000000000000000000000,
|
|
100000100000100000000000100000100000100000000000,
|
|
100000100000100000000000200000200000200000000000,
|
|
100000100000100000000000100000100000100000000000,
|
|
100000100000100000000000200000200000200000000000,
|
|
100000000000100000000000100000000000100000000000,
|
|
100000000000000000000000100000000000000000000000,
|
|
500000000000000000000000000000000000000000000080,
|
|
000000000000000000000000000000000000000000000000,
|
|
000000200000000000200000000000200000000000200000,
|
|
100000100000100000000000000000000000000000000000,
|
|
000000200000000000200000000000200000000000200000,
|
|
100000100000100000100000500000000000000080000000,
|
|
000000200000000000200000000000200000000000200000,
|
|
100000100000100000000000000000000000000000000000,
|
|
000000200000000000200000000000200000000000200000,
|
|
100000100000100000100000300000000000000000000000,
|
|
100000000000100000000000100000000000100000000000,
|
|
100000000000000000000000100000000000000000000000,
|
|
500000000000000000000000000000000000000000000080,
|
|
000000000000000000000000000000000000000000000000,
|
|
100000100000100000000000000000000000000000000000,
|
|
000000000000100000100000300000000000000000000000,
|
|
000000000000000000000000000000000000000000000000,
|
|
000000000000200000000000000000000000200000000000,
|
|
000000000000000000000000000000000000000000000000,
|
|
000000000000200000000000200000000000000000000000,
|
|
100000000000000000100000100000000000200000000000,
|
|
100000000000000000100000100000000000200000000000,
|
|
100000000000000000100000100000000000200000000000,
|
|
000000000000000000000000200000200000200000000000,
|
|
100000000000000000100000100000000000200000000000,
|
|
100000000000000000100000100000000000200000000000,
|
|
100000000000000000100000100000000000200000000000,
|
|
000000000000000000000000200000200000200000000000,
|
|
100000100000100000000000100000100000100000000000,
|
|
100000100000100000000000200000200000200000000000,
|
|
100000100000100000000000100000100000100000000000,
|
|
100000100000100000000000200000200000200000000000,
|
|
100000000000100000000000100000000000100000000000,
|
|
100000000000000000000000100000000000000000000000,
|
|
500000000000000000000000000000000000000000000080,
|
|
000000000000000000000000000000000000000000000000,
|
|
000000200000000000200000000000200000000000200000,
|
|
000000000000000000000000100000100000100000000000,
|
|
000000200000000000200000000000200000000000200000,
|
|
100000100000100000100000500000000000000080000000,
|
|
000000200000000000200000000000200000000000200000,
|
|
000000000000000000000000100000100000100000000000,
|
|
000000200000000000200000000000200000000000200000,
|
|
100000100000100000100000300000000000000000000000,
|
|
100000000000100000000000100000000000100000000000,
|
|
100000000000000000000000100000000000000000000000,
|
|
500000000000000000000000000000000000000000000080,
|
|
000000000000000000000000000000000000000000000000,
|
|
000000000000000000000000200000200000200000000000,
|
|
000000000000100000100000300000000000000000000000,
|
|
|
|
|
|
#END
|
|
|
|
|
|
COURSE:Easy
|
|
LEVEL:3
|
|
SCOREINIT:870
|
|
SCOREDIFF:270
|
|
|
|
|
|
#START
|
|
|
|
|
|
000000000000000000000000000000000000000000000000,
|
|
000000000000000000000000000000000000000000000000,
|
|
000000000000000000000000000000000000000000000000,
|
|
000000000000000000000000100000000000000000000000,
|
|
000000000000000000000000100000000000000000000000,
|
|
000000000000000000000000100000000000000000000000,
|
|
000000000000000000000000100000000000000000000000,
|
|
000000000000000000000000200000000000000000000000,
|
|
000000000000000000000000200000000000000000000000,
|
|
000000000000000000000000200000000000000000000000,
|
|
000000000000000000000000200000000000000000000000,
|
|
100000000000000000100000100000000000000000000000,
|
|
100000000000000000100000100000000000000000000000,
|
|
100000000000000000100000100000000000000000000000,
|
|
100000100000100000000000000000000000000000000000,
|
|
100000000000000000100000100000000000000000000000,
|
|
100000000000000000100000100000000000000000000000,
|
|
100000000000000000100000100000000000000000000000,
|
|
100000100000100000000000000000000000000000000000,
|
|
100000100000100000000000100000100000100000000000,
|
|
100000100000100000000000000000000000200000000000,
|
|
100000100000100000000000100000100000100000000000,
|
|
100000100000100000000000000000000000200000000000,
|
|
000000000000000000000000200000000000000000000000,
|
|
000000000000000000000000200000000000000000000000,
|
|
500000000000000000000000000000000000000000800000,
|
|
000000000000000000000000000000000000000000000000,
|
|
000000000000200000000000000000000000200000000000,
|
|
100000000000100000000000000000000000000000000000,
|
|
000000000000200000000000000000000000200000000000,
|
|
100000000000100000000000300000000000000000000000,
|
|
000000000000200000000000000000000000200000000000,
|
|
100000000000100000000000000000000000000000000000,
|
|
000000000000200000000000000000000000200000000000,
|
|
100000000000100000000000300000000000000000000000,
|
|
000000000000000000000000200000000000000000000000,
|
|
000000000000000000000000200000000000000000000000,
|
|
500000000000000000000000000000000000000000800000,
|
|
000000000000000000000000000000000000000000000000,
|
|
100000100000100000000000000000000000000000000000,
|
|
000000000000100000100000300000000000000000000000,
|
|
000000000000000000000000000000000000000000000000,
|
|
000000000000000000000000000000000000000000000000,
|
|
000000000000000000000000000000000000000000000000,
|
|
000000000000100000000000100000000000000000000000,
|
|
100000000000000000100000100000000000000000000000,
|
|
100000000000000000100000100000000000000000000000,
|
|
100000000000000000100000100000000000000000000000,
|
|
000000000000000000000000100000100000100000000000,
|
|
100000000000000000100000100000000000000000000000,
|
|
100000000000000000100000100000000000000000000000,
|
|
100000000000000000100000100000000000000000000000,
|
|
100000100000100000000000000000000000000000000000,
|
|
100000100000100000000000100000100000100000000000,
|
|
100000100000100000000000000000000000200000000000,
|
|
100000100000100000000000100000100000100000000000,
|
|
100000100000100000000000000000000000200000000000,
|
|
000000000000000000000000200000000000000000000000,
|
|
000000000000000000000000200000000000000000000000,
|
|
500000000000000000000000000000000000000000800000,
|
|
000000000000000000000000000000000000000000000000,
|
|
000000000000200000000000000000000000200000000000,
|
|
000000000000000000000000100000000000100000000000,
|
|
000000000000200000000000000000000000200000000000,
|
|
100000000000100000000000300000000000000000000000,
|
|
000000000000200000000000000000000000200000000000,
|
|
000000000000000000000000100000000000100000000000,
|
|
000000000000200000000000000000000000200000000000,
|
|
100000000000100000000000300000000000000000000000,
|
|
000000000000000000000000200000000000000000000000,
|
|
000000000000000000000000200000000000000000000000,
|
|
500000000000000000000000000000000000000000800000,
|
|
000000000000000000000000000000000000000000000000,
|
|
000000000000000000000000100000100000100000000000,
|
|
000000000000100000100000300000000000000000000000,
|
|
|
|
|
|
#END
|
|
|